Торрент файл
скачать торрент магнет ссылка Добавлен: 03 мар 2014, 20:58
Размер: 10.13 ГБ
Сидеров: 949
Личеров: 148
Статус: (Dracon)
Автор

СообщениеДобавлено: 03 мар 2014, 20:58 

Не в сети
Зам. Админа
Аватара пользователя
Дата регистрации:
02 дек 2010, 12:39
Спасибо: 12460 / 214
Сообщения: 27968
Год выпуска: 2013
Страна: Россия / Всемирные Русские Студии, ВайТ Медиа
Жанр: драма
Продолжительность: 20 x ~00:50:00

Перевод: не требуется
Cубтитры: нет
Оригинальная аудиодорожка: русский

Режиссер: Алексей Чистиков

В ролях: Алексей Чадов, Людмила Свитова, Андрей Чадов, Татьяна Яковенко, Агния Дитковските, Сергей Жигунов, Татьяна Васильева, Виктория Толстоганова, Иван Агапов, Юлия Мельникова...

Описание: Захватывающая история берет свое начало в 2000-х годах, когда семья Назаровых, надеясь на лучшую жизнь, перебирается из провинциального городка в Москву. Здесь отец братьев вкладывает все сбережения в собственный бизнес и открывает магазин с техникой на крупном рынке. Казалось бы, новая жизнь начинает налаживаться, но павильон грабят. В итоге главу семейства находят повесившимся, а его жена сходит с ума, не сумев пережить трагедию.
Понимая, что ограбление — не случайность, братья решают отомстить за родителей, но выбирают противоположные методы. Иван, которого играет Алексей Чадов, решает внедриться в преступный мир, найти всех, кто виновен в гибели отца, и постепенно их уничтожить. Его брат Александр планирует стать юристом, чтобы бороться с преступностью и несправедливостью при помощи закона.
Не только способы достижения цели разводят братьев по разные стороны баррикад: Иван и Александр становятся соперниками, влюбляясь в одних и тех же женщин, а также переживают предательства друзей и союзников. Однако в самые тяжелые и решающие моменты они могут надеяться только друг на друга.




Качество: DVDRip (2 x DVD9 R5)
Формат: AVI
Видео: 688x384 (16:9), 25.000 fps, XViD ~ 1340 kbps avg, 0.203 bit/pixel
Аудио: 48 kHz, АС3 2 ch, 96 kbps, русский

Общее
Полное имя : Delo.chesti.2013.DVDRip_[New-team]_by_avproh\01.avi
Формат : AVI
Формат/Информация : Audio Video Interleave
Размер файла : 534 Мбайт
Продолжительность : 51 м.
Общий поток : 1445 Кбит/сек
Программа кодирования : VirtualDubModRus 1.5.10.2 (build 2542/release)
Библиотека кодирования : VirtualDubMod build 2542/release

Видео
Идентификатор : 0
Формат : MPEG-4 Visual
Профиль формата : Advanced Simple@L5
Параметр BVOP формата : 1
Параметр QPel формата : Нет
Параметр GMC формата : Без точки перехода
Параметр матрицы формата : Выборочная
Идентификатор кодека : XVID
Идентификатор кодека/Подсказка : XviD
Продолжительность : 51 м.
Битрейт : 1340 Кбит/сек
Ширина : 688 пикселей
Высота : 384 пикселя
Соотношение сторон : 16:9
Частота кадров : 25,000 кадров/сек
Цветовое пространство : YUV
Субдискретизация насыщенности : 4:2:0
Битовая глубина : 8 бит
Тип развёртки : Прогрессивная
Метод сжатия : С потерями
Бит/(Пиксели*Кадры) : 0.203
Размер потока : 495 Мбайт (93%)
Библиотека кодирования : XviD 73

Аудио
Идентификатор : 1
Формат : AC-3
Формат/Информация : Audio Coding 3
Расширение режима : CM (complete main)
Параметр Endianness формата : Big
Идентификатор кодека : 2000
Продолжительность : 51 м.
Вид битрейта : Постоянный
Битрейт : 96,0 Кбит/сек
Каналы : 2 канала
Расположение каналов : Front: L R
Частота : 48,0 КГц
Битовая глубина : 16 бит
Метод сжатия : С потерями
Размер потока : 35,5 Мбайт (7%)
Выравнивание : Разделение по промежуткам
Продолжительность промежутка : 40 мс. (1,00 видеокадр)
Время предзагрузки промежутка : 500 мс.





реклама партнёра


Вернуться к началу
 Профиль  
 
   Похожие торренты   Автор   Торрент   Размер 
В этой теме нет новых непрочитанных сообщений. Дело в тебе / A Case of You [мелодрама, комедия, 2013] HDRip, Mvo [Лицензия]

Dracon

21 | 3

1.36 ГБ

В этой теме нет новых непрочитанных сообщений. Кодекс чести / Yi ben wu yan [боевик, драма, 1987] DVDRip, Avo

salma3

3 | 4

1.45 ГБ

В этой теме нет новых непрочитанных сообщений. Дело о смерти Анкура Ароры / Ankur Arora Murder Case [Драма, триллер, 2013] DVDRip, Avo+Sub

salma3

23 | 4

1.46 ГБ

В этой теме нет новых непрочитанных сообщений. Кулак чести / Fist of Honor [Боевик, драма, 1993] DVDRip, Avo

salma3

45 | 17

1.46 ГБ

В этой теме нет новых непрочитанных сообщений. Дело №39 / Case 39 [ужасы, мистика, триллер, 2007] BDRip, Dub [Лицензия]

salma3

140 | 4

1.46 ГБ

В этой теме нет новых непрочитанных сообщений. Роль [Драма, 2013] DVDRip [Лицензия]

Dracon

335 | 10

1.46 ГБ

В этой теме нет новых непрочитанных сообщений. Роман с кокаином [драма, 2013] DVDRip [лицензия]

Dracon

394 | 7

1.46 ГБ


Начать новую тему Ответить на тему  [ 1 сообщение ] 




Для Мосгорсуда, Роскомнадзора и рекламодателей:: mosgorsud-torrent[собачка]yandex.ru