Торрент файл
скачать торрент магнет ссылка Добавлен: 04 мар 2014, 13:55
Размер: 5.43 ГБ
Сидеров: 145
Личеров: 54
Статус: (salma3)
Автор

СообщениеДобавлено: 07 фев 2014, 13:27 

В сети
Супермодератор
Аватара пользователя
Дата регистрации:
15 фев 2012, 16:44
Возраст: 27
Спасибо: 5139 / 2090
Сообщения: 17440
Год выхода: 2012
Жанр: драма, криминал, детектив
Режиссер: Тони Тилс, Даина Рейд, Дэвид Цезар
В ролях: Эсси Дэвис, Нэйтан Пейдж, Хьюго Джонстон-Барт, Эшли Каммингс, Ричард Блиф, Трэвис МакМахон, Энтони Шарп, Тэмми МакИнтош, Мириам Маргулис, Руби Рис Уэмисс

О фильме:
Фильм о первой леди-детективе Мельбурна 20-х годов прошлого века мисс Фрайни Фишер, любительнице приключений и красивых мужчин, которая с легкостью управляет не только автомобилем, но и самолётом, всегда носит при себе пистолет с перламутровой ручкой и острый нож. Ещё она прекрасно танцует танго, наверняка на этом список её талантов не заканчивается, и уж точно, что все эти навыки неизменно помогают ей справиться с самыми запутанными делами…

Официальный сайт

Страна: Австралия
Студия: ABC1
Продолжительность: ~00:55:00 серия
Перевод: Любительский (многоголосый закадровый) (ViruseProject)

Файл
Кодек: XviD / MP3
Качество: DVDRip
Видео: XviD, 624x352 (16:9), 25.000 fps, 896 Kbps (0.163 bit/pixel)
Звук: MP3, 48.0 KHz, 2 ch, 192 Kbps, CBR

General
Complete name : /Miss.Fisher's.Murder.Mysteries.S02/Miss.Fisher's.Murder.Mysteries.S02E01.ViruseProject.avi
Format : AVI
Format/Info : Audio Video Interleave
File size : 429 MiB
Duration : 54mn 36s
Overall bit rate : 1 098 Kbps
Writing application : VirtualDubMod 1.5.10.2 (build 2540/release)
Writing library : VirtualDubMod build 2540/release

Video
ID : 0
Format : MPEG-4 Visual
Format profile : Advanced Simple@L5
Format settings, BVOP : 1
Format settings, QPel : No
Format settings, GMC : No warppoints
Format settings, Matrix : Default (MPEG)
Codec ID : XVID
Codec ID/Hint : XviD
Duration : 54mn 36s
Bit rate : 896 Kbps
Width : 624 pixels
Height : 352 pixels
Display aspect ratio : 16:9
Frame rate : 25.000 fps
Color space : YUV
Chroma subsampling : 4:2:0
Bit depth : 8 bits
Scan type : Progressive
Compression mode : Lossy
Bits/(Pixel*Frame) : 0.163
Stream size : 350 MiB (82%)
Writing library : XviD 1.2.1 (UTC 2008-12-04)

Audio
ID : 1
Format : MPEG Audio
Format version : Version 1
Format profile : Layer 3
Codec ID : 55
Codec ID/Hint : MP3
Duration : 54mn 36s
Bit rate mode : Constant
Bit rate : 192 Kbps
Channel(s) : 2 channels
Sampling rate : 48.0 KHz
Compression mode : Lossy
Stream size : 75.0 MiB (17%)
Alignment : Split accross interleaves
Interleave, duration : 40 ms (1.00 video frame)
Interleave, preload duration : 500 ms


_________________



реклама партнёра


Вернуться к началу
 Профиль Отправить личное сообщение  
 
   Похожие торренты   Автор   Торрент   Размер 
В этой теме нет новых непрочитанных сообщений. Леди-детектив мисс Фрайни Фишер / Miss Fisher's Murder Mysteries / 3 сезон 1-8 серии из 8 [Детектив, криминал, драма, 2015] WEB-DLRip, Mvo [ViruseProject]

salma3

250 | 82

4.71 ГБ

В этой теме нет новых непрочитанных сообщений. Леди-детектив мисс Фрайни Фишер / Miss Fisher's Murder Mysteries [S01-02] [драма, криминал, детектив, 2012-2013] DVDRip, HDRip, Mvo

salma3

151 | 102

15.92 ГБ

В этой теме нет новых непрочитанных сообщений. Как избежать наказания за убийство / How to Get Away with Murder / 1 сезон 1-13 серии из 15 [драма, криминал, детектив, 2014] WEB-DLRip, Mvo [Flux-Team]

salma3

14 | 37

6.6 ГБ

В этой теме нет новых непрочитанных сообщений. Убийство первой степени / Murder in the First / 1 сезон 1-10 серии из 10 [триллер, детектив, драма, криминал, 2014] WEB-DLRip, Dvo [HamsterStudio]

salma3

100 | 21

4.4 ГБ

В этой теме нет новых непрочитанных сообщений. Тайны Лауры / The Mysteries of Laura / 1 сезон 1-22 серии из 22 [комедия, криминал, детектив, 2014] WEB-DLRip, Mvo [FOX Life]

salma3

47 | 15

9.33 ГБ

В этой теме нет новых непрочитанных сообщений. Лживая Луна / Liar's Moon (Дэвид Фишер / David Fisher) [1982г., драма, DVDRip] AVO

Alfredovich

11 | 4

1.44 ГБ

В этой теме нет новых непрочитанных сообщений. Диагноз: Убийство / Diagnosis Murder / 1-8 сезоны 1-175 серии из 178 [драма, криминал, детектив, 1997] TVRip, Mvo [ДТВ]

salma3

0 | 4

76.59 ГБ


СообщениеДобавлено: 04 мар 2014, 13:56 

В сети
Супермодератор
Аватара пользователя
Дата регистрации:
15 фев 2012, 16:44
Возраст: 27
Спасибо: 5139 / 2090
Сообщения: 17440
Добавлены 11-13 серии

_________________


Вернуться к началу
 Профиль Отправить личное сообщение  
 
Начать новую тему Ответить на тему  [ Сообщений: 2 ] 




Для Мосгорсуда, Роскомнадзора и рекламодателей:: mosgorsud-torrent[собачка]yandex.ru