Торрент файл
скачать торрент магнет ссылка Добавлен: 03 фев 2014, 15:01
Размер: 29.99 ГБ
Сидеров: 7
Личеров: 13
Автор

СообщениеДобавлено: 03 фев 2014, 15:01 

Не в сети
Супермодератор
Аватара пользователя
Дата регистрации:
15 фев 2012, 16:44
Возраст: 27
Спасибо: 5139 / 2089
Сообщения: 17411
Сумеречная зона / The Twilight Zone /

Год выхода: 1985-1989
Жанр: ужасы, фантастика, фэнтези, триллер, детектив
Режиссер: Пол Линч, Питер Медак, Рышард Бугайский

В ролях: Робин Уорд, Чарльз Эйдмен, Люси-Линн Норрис, Ричард Маллиган, Уильям Этертон, Джули Ханер, Робертс Блоссом, Хизер Хаазе, Эллен Альбертини Дау,

О фильме:
Промежуточная территория между светом и тьмой, между наукой и суеверием, между пропастью человеческих страхов и вершиной его знаний. Это измерение воображения. Эту область мы называем… «Сумеречной зоной». Все мы движемся параллельными путями, направляясь в сумеречную зону. Сумеречная зона (The Twilight Zone) - американский телевизионный сериал, созданный Родом Серлингом (Rod Serling). Каждый эпизод является смесью фэнтези, научной фантастики, драмы, ужаса, часто заканчивающейся жуткой или неожиданной развязкой..



Страна: Великобритания, Канада, США | CBS Television
Продолжительность: 110 х ~00:20:00
Перевод1: Профессиональный (Многоголосый, закадровый) [СТС]
Перевод2: Авторский (Одноголосый, закадровый) [Вячеслав Котов] (Пропущеные каналом серии)

Файл
Качество: DVDRip-AVC
Формат файла: MKV
Видео кодек: x264
Аудио кодек: AC3 / MP3
Видео: 688х480@688х528 (1.30:1), 23.976 fps, AVC (x264), High@ L4.1 ~1500 kbps avg, 0.189 bit/pixel.
Аудио Rus: 44, 100 kHz, MPEG Layer 3, 2 ch, ~128.00 kbps avg.
Аудио Eng: 48 kHz, AC3 Dolby Digital, 2/0 (L, R) ch, ~224 kbps.

Формат : Matroska
Версия формата : Version 2
Размер файла : 292 Мбайт
Продолжительность : 22 м.
Общий поток : 1854 Кбит/сек
Дата кодирования : UTC 2012-07-12 15:32:38
Программа кодирования : mkvmerge v5.0.1 ('Es ist Sommer') built on Nov 6 2011 16:23:40
Библиотека кодирования : libebml v1.2.2 + libmatroska v1.3.0

Видео
Идентификатор : 1
Формат : AVC
Формат/Информация : Advanced Video Codec
Профиль формата : High@L4.1
Параметр CABAC формата : Да
Параметр ReFrames формата : 7 кадров
Идентификатор кодека : V_MPEG4/ISO/AVC
Продолжительность : 22 м.
Битрейт : 1500 Кбит/сек
Ширина : 688 пикселей
Высота : 480 пикселей
Соотношение сторон : 4:3
Режим частоты кадров : Постоянный
Частота кадров : 23, 976 кадра/сек
Цветовое пространство : YUV
Субдискретизация насыщенности : 4:2:0
Битовая глубина : 8 бит
Тип развёртки : Прогрессивная
Бит/(Пиксели*Кадры) : 0.189
Размер потока : 231 Мбайт (79%)
Библиотека кодирования : x264 core 88 r1471 1144615
Настройки программы : cabac=1 / ref=7 / deblock=1:-2:-1 / analyse=0x3:0x113 / me=tesa / subme=10 / psy=1 / psy_rd=1.00:0.00 / mixed_ref=1 / me_range=24 / chroma_me=1 / trellis=2 / 8x8dct=1 / cqm=0 / deadzone=21, 11 / fast_pskip=0 / chroma_qp_offset=-2 / threads=6 / sliced_threads=0 / nr=0 / decimate=0 / mbaff=0 / constrained_intra=0 / bframes=5 / b_pyramid=2 / b_adapt=2 / b_bias=0 / direct=3 / wpredb=1 / wpredp=2 / keyint=250 / keyint_min=25 / scenecut=40 / intra_refresh=0 / rc_lookahead=40 / rc=2pass / mbtree=1 / bitrate=1500 / ratetol=1.0 / qcomp=0.60 / qpmin=10 / qpmax=51 / qpstep=4 / cplxblur=20.0 / qblur=0.5 / ip_ratio=1.40 / aq=1:1.00
Default : Да
Forced : Нет

Аудио #1
Идентификатор : 2
Формат : MPEG Audio
Версия формата : Version 1
Профиль формата : Layer 3
Идентификатор кодека : A_MPEG/L3
Идентификатор кодека/Подсказка : MP3
Продолжительность : 22 м.
Вид битрейта : Постоянный
Битрейт : 128 Кбит/сек
Каналы : 2 канала
Частота : 44, 1 КГц
Метод сжатия : С потерями
Размер потока : 20, 1 Мбайт (7%)
Язык : Russian
Default : Да
Forced : Нет

Аудио #2
Идентификатор : 3
Формат : AC-3
Формат/Информация : Audio Coding 3
Расширение режима : CM (complete main)
Параметр Endianness формата : Big
Идентификатор кодека : A_AC3
Продолжительность : 22 м.
Вид битрейта : Постоянный
Битрейт : 224 Кбит/сек
Каналы : 2 канала
Расположение каналов : Front: L R
Частота : 48, 0 КГц
Битовая глубина : 16 бит
Метод сжатия : С потерями
Размер потока : 35, 3 Мбайт (12%)
Язык : English
Default : Нет
Forced : Нет








_________________



реклама партнёра


Вернуться к началу
 Профиль Отправить личное сообщение  
 
   Похожие торренты   Автор   Торрент   Размер 
В этой теме нет новых непрочитанных сообщений. Сумеречная зона / Twilight Zone: The Movie [ужасы, фантастика, фэнтези, триллер, 1983] HDRip, Dvo

salma3

34 | 4

1.45 ГБ

В этой теме нет новых непрочитанных сообщений. Сумеречная зона: Фильм / Twilight Zone: The Movie [ужасы, фантастика, фэнтези, 1983] BDRip-AVC, Mvo

salma3

40 | 2

2.18 ГБ

В этой теме нет новых непрочитанных сообщений. Мёртвая зона / The Dead Zone 1-6 сезоны 1-80 серии из 80 [фантастика, мистика, драма, детектив, 2002-2007] DVDRip, Mvo [ОРТ, СТС, ДТВ, AXN Sci-Fi]

salma3

8 | 8

29.15 ГБ

В этой теме нет новых непрочитанных сообщений. Мертвая зона / The Dead Zone [ужасы, триллер, драма, детектив, 1983] BDRip, Mvo [ТВ3]

salma3

43 | 8

1.46 ГБ

В этой теме нет новых непрочитанных сообщений. Мёртвая зона / The Dead Zone [ужасы, триллер, драма, детектив, 1983] BDRip 1080p, Mvo+Dvo+4Avo+Sub

salma3

8 | 3

13.83 ГБ

В этой теме нет новых непрочитанных сообщений. Запретная зона: Похищение инопланетянином / Forbidden zone: Alien abduction [фантастика, триллер, 1996] DVDRip, Dvo [лицензия]

salma3

43 | 5

1.46 ГБ

В этой теме нет новых непрочитанных сообщений. Мертвая Зона / The Dead Zone [Драма, фэнтези, триллер, экранизация, 1983] BDRemux, Mvo+Dvo+4Avo+Sub

salma3

3 | 7

18.57 ГБ


Начать новую тему Ответить на тему  [ 1 сообщение ] 




Для Мосгорсуда, Роскомнадзора и рекламодателей:: mosgorsud-torrent[собачка]yandex.ru