Торрент файл
скачать торрент магнет ссылка Добавлен: 29 янв 2014, 15:49
Размер: 4.34 ГБ
Сидеров: 0
Личеров: 10
Статус: (Dracon)
Автор

СообщениеДобавлено: 29 янв 2014, 15:52 

Не в сети
Аватара пользователя
Дата регистрации:
26 ноя 2013, 12:32
Возраст: 56
Спасибо: 52 / 7
Сообщения: 66
Откуда: СССР
Год выпуска: 2011
Выпущено: Россия ,"Про-Синема продакшн", ЗАО "Дирекция кино" по заказу ОАО "Первый канал"
Жанр: Боевик, криминал, детектив
Перевод: Не требуется
Режиссер: Михаил Хлебородов
В ролях: Алексей Янин, Александр Голубков, Евгений Миллер, Екатерина Федулова, Андрей Феськов, Олег Тактаров, Наталья Земцова, Виктория Маслова, Павел Баршак, Екатерина Шпица, Денис Юшечкин, Алексей Медведев, Илья Исаев, Ричард Ильин, Дмитрий Лабуш, Настасья Самбурская, Дмитрий Буренков
О фильме: СОБР, сюда возьмут не каждого, здесь свои традиции и свои законы. Они умеют все, они не знают слова «невозможно», и лучше не вставать на их пути. Они действуют со скоростью пули и бьют без промаха. И кому, как не им, известно — что быстрее выстрела и поражает гораздо сильнее… Нет оружия, способного опередить любовь…
Сэмпл
Качество: DVDRip
Видео: 720x400 (1.80:1), 25 fps, XviD MPEG-4 ~1307 kbps avg, 0.18 bit/pixel
Аудио: 48 kHz, AC3 Dolby Digital, 2/0 (L,R) ch, ~192 kbps
Продолжительность: 8 x ~ 00:46:00
Общее
Полное имя : D:\Мои фильмы\Operezhaja_vystrel_1-8iz8_2011_XviD_DVDRip\Operezhaja_vystrel_1_iz_8_2011_DVDRip.avi
Формат : AVI
Формат/Информация : Audio Video Interleave
Размер файла : 556 Мбайт
Продолжительность : 51 м.
Общий поток : 1509 Кбит/сек
Библиотека кодирования : VirtualDub build 35491/release

Видео
Идентификатор : 0
Формат : MPEG-4 Visual
Профиль формата : Advanced Simple@L5
Параметр BVOP формата : 2
Параметр QPel формата : Нет
Параметр GMC формата : Без точки перехода
Параметр матрицы формата : Default (H.263)
Режим смешивания : Сжатый битовый поток
Идентификатор кодека : XVID
Идентификатор кодека/Подсказка : XviD
Продолжительность : 51 м.
Битрейт : 1308 Кбит/сек
Ширина : 720 пикселей
Высота : 400 пикселей
Соотношение сторон : 16:9
Частота кадров : 25,000 кадров/сек
Цветовое пространство : YUV
Субдискретизация насыщенности : 4:2:0
Битовая глубина : 8 бит
Тип развёртки : Прогрессивная
Метод сжатия : С потерями
Бит/(Пиксели*Кадры) : 0.182
Размер потока : 481 Мбайт (87%)
Библиотека кодирования : XviD 64

Аудио
Идентификатор : 1
Формат : AC-3
Формат/Информация : Audio Coding 3
Расширение режима : CM (complete main)
Параметр Endianness формата : Big
Идентификатор кодека : 2000
Продолжительность : 51 м.
Вид битрейта : Постоянный
Битрейт : 192 Кбит/сек
Каналы : 2 канала
Расположение каналов : Front: L R
Частота : 48,0 КГц
Битовая глубина : 16 бит
Метод сжатия : С потерями
Размер потока : 70,7 Мбайт (13%)
Выравнивание : Соединение по промежуткам
Продолжительность промежутка : 40 мс. (1,00 видеокадр)
Время предзагрузки промежутка : 512 мс.




реклама партнёра


Вернуться к началу
 Профиль Отправить личное сообщение  
 
   Похожие торренты   Автор   Торрент   Размер 
В этой теме нет новых непрочитанных сообщений. Выстрел / Dishoom [боевик, комедия, криминал, приключения, 2016] DVDRip, Mvo

salma3

264 | 74

2.06 ГБ

В этой теме нет новых непрочитанных сообщений. Один выстрел / One Shot [боевик, 2014] DVDRip, Avo

salma3

2182 | 82

1.36 ГБ

В этой теме нет новых непрочитанных сообщений. Навесной огонь / Затяжной выстрел / Hangfire [Боевик, триллер, 1991] DVDRip, Dvo

salma3

1 | 68

1.46 ГБ

В этой теме нет новых непрочитанных сообщений. Снайперы / Выстрел сквозь сердце/ / Shot Through The Heart [боевик, драма, военный, 1998] DVDRip-AVC, Dvo

salma3

47 | 4

2.18 ГБ

В этой теме нет новых непрочитанных сообщений. Предупредительный выстрел / Warning Shot [Детектив, 1967] IPTVRip, Mvo

salma3

68 | 0

1.45 ГБ

В этой теме нет новых непрочитанных сообщений. Выстрел / Dishkiyaoon [боевик, триллер, 2014] HDRip, Mvo+Sub

salma3

15 | 7

2.16 ГБ

В этой теме нет новых непрочитанных сообщений. Единственный выстрел / A Single Shot [триллер, драма, криминал, 2013] HDRip, Mvo [iTunes]

Dracon

8 | 2

1.46 ГБ


Начать новую тему Ответить на тему  [ 1 сообщение ] 




Для Мосгорсуда, Роскомнадзора и рекламодателей:: mosgorsud-torrent[собачка]yandex.ru