Торрент файл
скачать торрент магнет ссылка Добавлен: 22 янв 2014, 16:46
Размер: 2.17 ГБ
Сидеров: 0
Личеров: 2
Статус: (salma3)
Автор

СообщениеДобавлено: 22 янв 2014, 16:50 

Не в сети
Аватара пользователя
Дата регистрации:
26 ноя 2013, 12:32
Возраст: 57
Спасибо: 54 / 8
Сообщения: 66
Откуда: СССР
Год выпуска: 2006
Выпущено: Россия ,Первый канал, киностудия "Вертикаль"
Жанр: Военная драма, реальные события
Перевод: Не требуется
Режиссер: Андрей Малюков
В ролях: Михаил Пореченков, Вячеслав Разбегаев, Анатолий Пашинин, Андрей Краско, Иван Жидков, Евгений Потапенко, Михаил Ефремов, Даниил Страхов, Елизавета Боярская, Марина Могилевская, Юрий Цурило, Виктория Толстоганова, Анастасия Цветаева, Борис Щербаков, Екатерина Климова, Александр Лойе, Максим Зыков, Марина Яковлева, Раиса Рязанова, Алексей Шевченков, Александр Фисенко, Илья Бледный, Степан Лапшин, Анна Дюкова, Дмитрий Медведев, Саид Дашук-Нигматулин, Андрей Зибров, Анатолий Гущин
О фильме: Люди на войне. В бою. В разведке. В отступлении. В атаке… Дни и ночи, проведенные в полевой обстановке заставляют задуматься и вспомнить — почему мы здесь? И в памяти каждого выплывают картины из прошлой и такой далекой теперь жизни. У каждого героя своя предыстория. Кто-то открывает для себя мир, кто-то сбегает от любви, кто-то доказывает свою самостоятельность, кто-то мстит… Такие разные, они оказываются в бою, плечом к плечу: вчерашние школьники и опытные полевые командиры. Фильм раскрывает внутренний мир каждого из них, желания, мечты, боль, надежды… Рота старшего лейтенанта Александра Доронина, в которой служат молодые солдаты Константин Ветров и Николай Горшков, откомандирована на Северный Кавказ. Командир полка полковник Галкин поручает Доронину оборону перевала "Грозовые ворота". К роте Доронина прикомандировывают группу спецназа ГРУ под командованием майора Егорова, у которого несколько лет назад от рук террористов погибли жена и сын. Вскоре по прибытии на перевал, Егоров знакомит Доронина со своим доверенным лицом Шахом, бывшим чеченским генералом. У Шаха имеется достоверная информация, что к перевалу стягиваются крупные силы боевиков. Они готовятся нанести роте сокрушительный удар...
Сэмпл
Качество: DVDRip
Видео: 720x400 (1.80:1), 25 fps, XviD MPEG-4 ~1279 kbps avg, 0.18 bit/pixel
Аудио: 48 kHz, AC3 Dolby Digital, 2/0 (L,R) ch, ~192 kbps
Продолжительность: 4 х ~ 00:50:00
Общее
Полное имя : D:\Мои фильмы\Grozovye_vorota_1-4iz4_2006_XviD_DVDRip\Grozovye_vorota_1_iz_4_2006_DVDRip.avi
Формат : AVI
Формат/Информация : Audio Video Interleave
Размер файла : 555 Мбайт
Продолжительность : 52 м.
Общий поток : 1482 Кбит/сек
Программа кодирования : VirtualDubMod 1.5.10.3 | http://www.virtualdub-fr.org || (build 2550/release)
Библиотека кодирования : VirtualDub build 35491/release

Видео
Идентификатор : 0
Формат : MPEG-4 Visual
Профиль формата : Advanced Simple@L5
Параметр BVOP формата : 2
Параметр QPel формата : Нет
Параметр GMC формата : Без точки перехода
Параметр матрицы формата : Default (H.263)
Режим смешивания : Сжатый битовый поток
Идентификатор кодека : XVID
Идентификатор кодека/Подсказка : XviD
Продолжительность : 52 м.
Битрейт : 1280 Кбит/сек
Ширина : 720 пикселей
Высота : 400 пикселей
Соотношение сторон : 16:9
Частота кадров : 25,000 кадров/сек
Цветовое пространство : YUV
Субдискретизация насыщенности : 4:2:0
Битовая глубина : 8 бит
Тип развёртки : Прогрессивная
Метод сжатия : С потерями
Бит/(Пиксели*Кадры) : 0.178
Размер потока : 480 Мбайт (86%)
Библиотека кодирования : XviD 64

Аудио
Идентификатор : 1
Формат : AC-3
Формат/Информация : Audio Coding 3
Расширение режима : CM (complete main)
Параметр Endianness формата : Big
Идентификатор кодека : 2000
Продолжительность : 52 м.
Вид битрейта : Постоянный
Битрейт : 192 Кбит/сек
Каналы : 2 канала
Расположение каналов : Front: L R
Частота : 48,0 КГц
Битовая глубина : 16 бит
Метод сжатия : С потерями
Размер потока : 72,0 Мбайт (13%)
Выравнивание : Соединение по промежуткам
Продолжительность промежутка : 40 мс. (1,00 видеокадр)
Время предзагрузки промежутка : 512 мс.




реклама партнёра


Вернуться к началу
 Профиль Отправить личное сообщение  
 
   Похожие торренты   Автор   Торрент   Размер 
В этой теме нет новых непрочитанных сообщений. Покровские ворота (2 серии из 2) [мюзикл, драма, мелодрама, комедия, 1982] BDRip

salma3

16 | 5

2.18 ГБ

В этой теме нет новых непрочитанных сообщений. Покровские ворота (2 серии из 2) [мюзикл, драма, мелодрама, комедия, 1982] BDRip-AVC

salma3

19 | 8

2.88 ГБ

В этой теме нет новых непрочитанных сообщений. Прикрытие-Один: Фактор Аида / Covert One: The Hades Factor [Боевик, триллер, драма, детектив, 2006] DVDRip, Mvo

salma3

107 | 34

2.74 ГБ

В этой теме нет новых непрочитанных сообщений. Второй в команде / Second in Command [Боевик, триллер, 2006] DVDRip, Mvo

salma3

25 | 4

1.37 ГБ

В этой теме нет новых непрочитанных сообщений. Штурмовики СС / S.S. Doomtrooper [Ужасы, фантастика, боевик, 2006] DVDRip, Avo

salma3

173 | 21

1.36 ГБ

В этой теме нет новых непрочитанных сообщений. Младенец на $30 000 000 / Bo bui gai wak [боевик, драма, комедия, 2006] HDRip, Mvo

salma3

13 | 1

1.46 ГБ

В этой теме нет новых непрочитанных сообщений. Младенец на $30 000 000 / Bo bui gai wak [боевик, комедия, драма, 2006] BDRip 720р, Dvo

salma3

59 | 5

4.43 ГБ


Начать новую тему Ответить на тему  [ 1 сообщение ] 




Для Мосгорсуда, Роскомнадзора и рекламодателей:: mosgorsud-torrent[собачка]yandex.ru