Торрент файл
скачать торрент магнет ссылка Добавлен: 22 янв 2014, 11:32
Размер: 2.17 ГБ
Сидеров: 0
Личеров: 2
Статус: (salma3)
Автор

СообщениеДобавлено: 22 янв 2014, 11:36 

Не в сети
Аватара пользователя
Дата регистрации:
26 ноя 2013, 12:32
Возраст: 56
Спасибо: 52 / 7
Сообщения: 66
Откуда: СССР
Год выпуска: 2013
Выпущено: Россия ,Триикс Медиа
Жанр: Остросюжетный сериал, детектив
Перевод: Не требуется
Режиссер: Игорь Копылов
В ролях: Антон Макарский, Мария Горбань, Игорь Головин, Алексей Морозов, Алексей Васильев, Юрий Колокольников, Максим Меркулов, Евгений Высоцкий
О фильме: Одесский оперативник Аркадий Резник решил навестить старого друга — частного детектива, живущего в Петербурге. Их встреча чуть не закончилась трагически: приятеля тяжело ранили прямо на глазах у Резника, и теперь он считает своим долгом выяснить, кто и за что хотел убить друга. Пустившись на поиски правды, Резник тут же попадает под прицел и следователей, и бандитов, и неведомых, но могущественных сил. Усложняют жизнь Аркадию и двое не слишком умных, но очень целеустремленных ребят - Эдик и Рома. Они прибыли в Петербург, чтобы «выбить должок» и передать Резнику «привет» из Одессы. Помощи ждать неоткуда, бороться со всеми придется одному. Единственный человек, на поддержку которого можно рассчитывать, - бывшая возлюбленная Таня. Несмотря на ее активное сопротивление, прежние романтические чувства вспыхнут с новой силой, ведь перед обаянием и напором этого одессита устоять практически невозможно.
Сэмпл
Качество: SATRip
Видео: 720x400 (1.80:1), 25 fps, XviD MPEG-4 ~1495 kbps avg, 0.21 bit/pixel
Аудио: 48 kHz, AC3 Dolby Digital, 2/0 (L,R) ch, ~192 kbps
Продолжительность: 4 х ~ 00:44:00
Общее
Полное имя : D:\Мои фильмы\Odessit_1-4iz4_2013_XviD_SATRip\Odessit_1_iz_4_2013_SATRip.avi
Формат : AVI
Формат/Информация : Audio Video Interleave
Размер файла : 555 Мбайт
Продолжительность : 45 м.
Общий поток : 1698 Кбит/сек
Программа кодирования : VirtualDubMod 1.5.10.2 (build 2540/release)
Библиотека кодирования : VirtualDub build 35491/release

Видео
Идентификатор : 0
Формат : MPEG-4 Visual
Профиль формата : Advanced Simple@L5
Параметр BVOP формата : 2
Параметр QPel формата : Нет
Параметр GMC формата : Без точки перехода
Параметр матрицы формата : Default (H.263)
Режим смешивания : Сжатый битовый поток
Идентификатор кодека : XVID
Идентификатор кодека/Подсказка : XviD
Продолжительность : 45 м.
Битрейт : 1496 Кбит/сек
Ширина : 720 пикселей
Высота : 400 пикселей
Соотношение сторон : 16:9
Частота кадров : 25,000 кадров/сек
Цветовое пространство : YUV
Субдискретизация насыщенности : 4:2:0
Битовая глубина : 8 бит
Тип развёртки : Прогрессивная
Метод сжатия : С потерями
Бит/(Пиксели*Кадры) : 0.208
Размер потока : 489 Мбайт (88%)
Библиотека кодирования : XviD 64

Аудио
Идентификатор : 1
Формат : AC-3
Формат/Информация : Audio Coding 3
Расширение режима : CM (complete main)
Параметр Endianness формата : Big
Идентификатор кодека : 2000
Продолжительность : 45 м.
Вид битрейта : Постоянный
Битрейт : 192 Кбит/сек
Каналы : 2 канала
Расположение каналов : Front: L R
Частота : 48,0 КГц
Битовая глубина : 16 бит
Метод сжатия : С потерями
Размер потока : 62,8 Мбайт (11%)
Выравнивание : Соединение по промежуткам
Продолжительность промежутка : 40 мс. (1,00 видеокадр)
Время предзагрузки промежутка : 512 мс.




реклама партнёра


Вернуться к началу
 Профиль Отправить личное сообщение  
 
   Похожие торренты   Автор   Торрент   Размер 
В этой теме нет новых непрочитанных сообщений. Розыск-2 [01-16 серия из 16] [Остросюжетный сериал, детектив, 2013] SATRip

Dracon

0 | 2

7.94 ГБ

В этой теме нет новых непрочитанных сообщений. Розыск 2 [01-14 серия из 16] [Остросюжетный сериал, детектив, 2013] SATRip

Dracon

0 | 2

6.93 ГБ

В этой теме нет новых непрочитанных сообщений. Земляк [01-06 из 06] [Остросюжетный сериал, 2013] SATRip

Dracon

4586 | 2465

4.01 ГБ

В этой теме нет новых непрочитанных сообщений. Под прицелом [01-16 из 16] [Остросюжетный фильм, детектив, криминал, 2013] SATRip

Dracon

45 | 8

9.81 ГБ

В этой теме нет новых непрочитанных сообщений. Одессит [Серия 1-4 из 4] (Игорь Копылов) [боевик, криминал, 2013] HDTVRip

Dracon

0 | 2

2.15 ГБ

В этой теме нет новых непрочитанных сообщений. Взрыв из прошлого [Серии 1-4 из 4] (Андрей Иванов) [Остросюжетный детектив, 2015] SATRip

Dracon

38 | 6

2.36 ГБ

В этой теме нет новых непрочитанных сообщений. Горюнов [01-36 серия из 36] [Сериал, 2013] SATRip

Ανδρέας

197 | 74

18.02 ГБ


Начать новую тему Ответить на тему  [ 1 сообщение ] 




Для Мосгорсуда, Роскомнадзора и рекламодателей:: mosgorsud-torrent[собачка]yandex.ru