Торрент файл
скачать торрент магнет ссылка Добавлен: 20 янв 2014, 12:42
Размер: 4.34 ГБ
Сидеров: 0
Личеров: 2
Статус: (salma3)
Автор

СообщениеДобавлено: 20 янв 2014, 12:46 

Не в сети
Аватара пользователя
Дата регистрации:
26 ноя 2013, 12:32
Возраст: 57
Спасибо: 53 / 8
Сообщения: 66
Откуда: СССР
Год выпуска: 2012
Выпущено: Россия ,Централ Партнершип
Жанр: Драма, криминал
Перевод: Не требуется
Режиссер: Юрий Быков
В ролях: Даниил Страхов, Елена Лядова, Алексей Комашко, Денис Шведов, Андрей Казаков, Александр Коршунов, Владислав Толдыков, Юрий Тарасов, Дмитрий Куличков, Александр Цуркан, Константин Гацалов, Юрий Быков, Светозар Головлев, Алексей Матошин, Анастасия Панина, Владимир Беркун, Марина Гайзидорская, Ольга Ковылина, Екатерина Присмотрова-Белова, Александра Бледная, Полина Лазарева, Григорий Иванец, Никита Емшанов, Егор Клейменов, Игорь Сыхра, Николай Скурт, Ангелина Коршунова, Татьяна Рыбинец, Ирина Темичева, Павел Абраменков, Юлия Галина, Михаил Люлинецкий, Владислав Дунаев, Сергей Граб, Сергей Марухин, Анзор Камариддинов, Дмитрий Толкачев
О фильме: На группу инкассаторов одного крупного банка совершено дерзкое нападение. Один инкассатор убит, другой тяжело ранен. По тому, как чётко и слаженно выполнен налёт, следователи подозревают, что у бандитов есть информатор среди инкассаторов. Но кое о чём следователи не догадываются: денег украдено гораздо больше, чем значится по документам. В машине был "чёрный нал", о котором не следует знать органам. Начальник службы безопасности банка решает, втайне от следствия, внедрить в группу инкассаторов своего человека: психолога Вадима. Он должен вычислить среди них предателя, который участвует в подготовке ограблений. Мотивы и возможности есть практически у каждого... Вадиму предстоит освоиться в новом для себя качестве и сделать очень непростой выбор.
Сэмпл
Качество: DVDRip
Видео: 720x400 (1.80:1), 25 fps, XviD MPEG-4 ~1293 kbps avg, 0.18 bit/pixel
Аудио: 48 kHz, AC3 Dolby Digital, 2/0 (L,R) ch, ~192 kbps
Продолжительность: 8 x ~ 00:50:00
Общее
Полное имя : D:\Мои фильмы\Inkassatory_1-8iz8_2012_XviD_DVDRip\Inkassatory_1_iz_8_2012_DVDRip.avi
Формат : AVI
Формат/Информация : Audio Video Interleave
Размер файла : 556 Мбайт
Продолжительность : 51 м.
Общий поток : 1495 Кбит/сек
Программа кодирования : VirtualDubMod 1.5.10.3 | http://www.virtualdub-fr.org || (build 2550/release)
Библиотека кодирования : VirtualDub build 35491/release

Видео
Идентификатор : 0
Формат : MPEG-4 Visual
Профиль формата : Advanced Simple@L5
Параметр BVOP формата : 2
Параметр QPel формата : Нет
Параметр GMC формата : Без точки перехода
Параметр матрицы формата : Default (H.263)
Режим смешивания : Сжатый битовый поток
Идентификатор кодека : XVID
Идентификатор кодека/Подсказка : XviD
Продолжительность : 51 м.
Битрейт : 1293 Кбит/сек
Ширина : 720 пикселей
Высота : 400 пикселей
Соотношение сторон : 16:9
Частота кадров : 25,000 кадров/сек
Цветовое пространство : YUV
Субдискретизация насыщенности : 4:2:0
Битовая глубина : 8 бит
Тип развёртки : Прогрессивная
Метод сжатия : С потерями
Бит/(Пиксели*Кадры) : 0.180
Размер потока : 481 Мбайт (87%)
Библиотека кодирования : XviD 64

Аудио
Идентификатор : 1
Формат : AC-3
Формат/Информация : Audio Coding 3
Расширение режима : CM (complete main)
Параметр Endianness формата : Big
Идентификатор кодека : 2000
Продолжительность : 51 м.
Вид битрейта : Постоянный
Битрейт : 192 Кбит/сек
Каналы : 2 канала
Расположение каналов : Front: L R
Частота : 48,0 КГц
Битовая глубина : 16 бит
Метод сжатия : С потерями
Размер потока : 71,3 Мбайт (13%)
Выравнивание : Соединение по промежуткам
Продолжительность промежутка : 40 мс. (1,00 видеокадр)
Время предзагрузки промежутка : 512 мс.




реклама партнёра


Вернуться к началу
 Профиль Отправить личное сообщение  
 
   Похожие торренты   Автор   Торрент   Размер 
В этой теме нет новых непрочитанных сообщений. Леди-детектив мисс Фрайни Фишер / Miss Fisher's Murder Mysteries [S01-02] [драма, криминал, детектив, 2012-2013] DVDRip, HDRip, Mvo

salma3

151 | 102

15.92 ГБ

В этой теме нет новых непрочитанных сообщений. Решала (Роман Асхаев) [драма, криминал, 2012] WEB-DL 720p

Dracon

1135 | 55

2.27 ГБ

В этой теме нет новых непрочитанных сообщений. Под прикрытием / Pod prikritie [s03] [боевик, драма, криминал, 2012] HDRip, Mvo

salma3

23 | 17

8.2 ГБ

В этой теме нет новых непрочитанных сообщений. В ритме беззакония / Outlaw Country [драма, криминал, 2012] HDTVRip, Dub

salma3

55 | 7

1.36 ГБ

В этой теме нет новых непрочитанных сообщений. Автострада / Motorway / Che sau [Боевик, драма, криминал, 2012] BDRip 720р, Avo+Sub

salma3

202 | 35

5.67 ГБ

В этой теме нет новых непрочитанных сообщений. Небеса 2 / Рай 2 / Jannat 2 [Триллер, драма, криминал, 2012] HDRip, Mvo [Red Media]

salma3

0 | 3

1.46 ГБ

В этой теме нет новых непрочитанных сообщений. В ритме беззакония / Outlaw Country [драма, криминал, 2012] HDTVRip, Dvo

salma3

39 | 4

700.49 МБ


Начать новую тему Ответить на тему  [ 1 сообщение ] 




Для Мосгорсуда, Роскомнадзора и рекламодателей:: mosgorsud-torrent[собачка]yandex.ru