Торрент файл
скачать торрент магнет ссылка Добавлен: 19 янв 2014, 22:10
Размер: 8.44 ГБ
Сидеров: 0
Личеров: 2
Статус: (salma3)
Автор

СообщениеДобавлено: 19 янв 2014, 22:20 

Не в сети
Аватара пользователя
Дата регистрации:
26 ноя 2013, 12:32
Возраст: 56
Спасибо: 52 / 7
Сообщения: 66
Откуда: СССР
Год выпуска: 2012
Выпущено: Россия ,ДТ Продакшн
Жанр: Криминальный фильм
Перевод: Не требуется
Режиссер: Тимур Алпатов
В ролях: Сергей Газаров, Владимир Яглыч, Владислав Котлярский, Гурам Баблишвили, Софья Торосян, Максим Важов, Карина Разумовская, Михаил Солодко, Эдуард Рябинин, Денис Кудрявцев, Анатолий Отраднов, Егор Вадов, Глория Августинович
О фильме: Высокобюджетный приключенческий боевик от режиссера «Глухаря». Что будет, если во время операции по внедрению в преступную группировку офицер ФСБ влюбится в дочь главаря? ФСБ на протяжении длительного времени следила за известной преступной организацией, и последние донесения вызвали серьезные опасения: объемы денежных средств, проходящие через эту группировку, просто ужасают. Эта криминальная группировка занимается всеми видами преступного бизнеса, начиная от обычного вымогательства и предоставления "крыши" коммерсантам, завершая проведением многоуровневых афер с госсредствами. Все попытки разоблачить преступников и предать справедливому суду заканчиваются провалом. Существует лишь один способ арестовать преступников - внедрение крота в криминальную группировку, чтобы изнутри добыть необходимую информацию и всевозможные улики. В качестве агента был выбран молодой сотрудник оперативного отдела. Все шло, как и планировалось, пока с внедренным агентом не произошла оказия - он по уши влюбился в дочь главаря криминальной группировки. И теперь вся операция находится под угрозой срыва.
Сэмпл
Качество: WEBRip
Видео: 720x400 (1.80:1), 24.999 fps, XviD MPEG-4 ~1771 kbps avg, 0.25 bit/pixel
Аудио: 48 kHz, AC3 Dolby Digital, 2/0 (L,R) ch, ~192 kbps
Продолжительность: 12 x ~ 00:51:00
Общее
Полное имя : D:\Мои фильмы\Pod_prikrytiem_01-12iz12_2012_XviD_WEBRip\Pod_prikrytiem_01_iz_12_2012_WEBRip.avi
Формат : AVI
Формат/Информация : Audio Video Interleave
Размер файла : 721 Мбайт
Продолжительность : 51 м.
Общий поток : 1974 Кбит/сек
Библиотека кодирования : VirtualDub build 35491/release

Видео
Идентификатор : 0
Формат : MPEG-4 Visual
Профиль формата : Advanced Simple@L5
Параметр BVOP формата : 2
Параметр QPel формата : Нет
Параметр GMC формата : Без точки перехода
Параметр матрицы формата : Default (H.263)
Режим смешивания : Сжатый битовый поток
Идентификатор кодека : XVID
Идентификатор кодека/Подсказка : XviD
Продолжительность : 51 м.
Битрейт : 1772 Кбит/сек
Ширина : 720 пикселей
Высота : 400 пикселей
Соотношение сторон : 16:9
Частота кадров : 25,000 кадров/сек
Цветовое пространство : YUV
Субдискретизация насыщенности : 4:2:0
Битовая глубина : 8 бит
Тип развёртки : Прогрессивная
Метод сжатия : С потерями
Бит/(Пиксели*Кадры) : 0.246
Размер потока : 647 Мбайт (90%)
Библиотека кодирования : XviD 64

Аудио
Идентификатор : 1
Формат : AC-3
Формат/Информация : Audio Coding 3
Расширение режима : CM (complete main)
Параметр Endianness формата : Big
Идентификатор кодека : 2000
Продолжительность : 51 м.
Вид битрейта : Постоянный
Битрейт : 192 Кбит/сек
Каналы : 2 канала
Расположение каналов : Front: L R
Частота : 48,0 КГц
Битовая глубина : 16 бит
Метод сжатия : С потерями
Размер потока : 70,1 Мбайт (10%)
Выравнивание : Соединение по промежуткам
Продолжительность промежутка : 40 мс. (1,00 видеокадр)
Время предзагрузки промежутка : 512 мс.




реклама партнёра


Вернуться к началу
 Профиль Отправить личное сообщение  
 
   Похожие торренты   Автор   Торрент   Размер 
В этой теме нет новых непрочитанных сообщений. Под прикрытием [1-12 из 12] [2012, Криминальный фильм] DVDRip

iopuk60

0 | 4

8.74 ГБ

В этой теме нет новых непрочитанных сообщений. Сталин и Зоя: трудное решение (Алексей Меняйлов) [2012, Документальный фильм, WEBRip]

vairgin

4 | 3

1.09 ГБ

В этой теме нет новых непрочитанных сообщений. Департамент [01-16 из 16] [Криминальный фильм,2013] DVDRip

iopuk60

0 | 2

8.68 ГБ

В этой теме нет новых непрочитанных сообщений. Умельцы [01-16 из 16] [Криминальный фильм, 2014] SATRip

Dracon

1531 | 289

9.39 ГБ

В этой теме нет новых непрочитанных сообщений. Карпов [03х01-28 из 32] [Детектив, криминальный фильм, драма, 2014] DVB

Dracon

В этой теме нет новых непрочитанных сообщений. Не женское дело [01-08 из 08] [Криминальный фильм, мелодрама, 2013] SATRip

Dracon

150 | 25

4.15 ГБ

В этой теме нет новых непрочитанных сообщений. Умельцы [01-06 из 16] (Всеволод Аравин) [2014, Криминальный фильм, SATRip]

Nickolas3435

193 | 9

3.53 ГБ


Начать новую тему Ответить на тему  [ 1 сообщение ] 




Для Мосгорсуда, Роскомнадзора и рекламодателей:: mosgorsud-torrent[собачка]yandex.ru