Торрент файл
скачать торрент магнет ссылка Добавлен: 15 ноя 2014, 12:20
Размер: 8.75 ГБ
Сидеров: 5
Личеров: 5
Автор

СообщениеДобавлено: 18 янв 2014, 09:10 

Не в сети
Аватара пользователя
Дата регистрации:
26 ноя 2013, 12:32
Возраст: 57
Спасибо: 53 / 8
Сообщения: 66
Откуда: СССР
Год выпуска: 2012
Выпущено: Россия ,"ИНТРА Фильм"
Жанр: Боевик, детектив, криминал
Перевод: Не требуется
Режиссер: Игорь Забара, Вячеслав Лавров
В ролях: Денис Бобышев, Андрей Аверьянов, Татьяна Калих, Артём Бородич, Максим Житник, Заза Чантурия, Валентина Пугачёва (II), Александр Островский, Фархад Махмудов, Борис Полунин, Георгий Пицхелаури, Анна Федорук, Виктор Бабак, Игорь Денисов, Сергей Калантай
О фильме: Офицеры группы спецназа «Белые волки» стоят на страже спокойствия и порядка в государстве. Они борются со злом во всех его проявлениях: их то направляют на захват группы наркоторговцев, то на обезвреживание спившегося и полубезумного отставного майора, ветерана войны в Чечне, убившего жену, соседку и взявшего в заложники двух маленьких девочек. «Белые волки» охотятся за беглыми преступниками и обезвреживают банды налетчиков и грабителей, обеспечивают безопасность важных свидетелей и освобождают заложников

Сэмпл

Качество: WEBRip
Видео: 720x400 (1.80:1), 23.976 fps, XviD build 65 ~1644 kbps avg, 0.24 bit/pixel
Аудио: 48 kHz, AC3 Dolby Digital, 2/0 (L,R) ch, ~192 kbps
Продолжительность: 14 x ~ 00:48:00
Общее
Полное имя : D:\Мои фильмы\Belye_volki_S1_01-14iz14_2012_XviD_WEBRip\Belye_volki_S1_01_iz_14_2012_WEBRip.avi
Формат : AVI
Формат/Информация : Audio Video Interleave
Размер файла : 640 Мбайт
Продолжительность : 48 м.
Общий поток : 1846 Кбит/сек
Программа кодирования : VirtualDubMod 1.5.10.3 | http://www.virtualdub-fr.org || (build 2550/release)
Библиотека кодирования : VirtualDub build 35491/release

Видео
Идентификатор : 0
Формат : MPEG-4 Visual
Профиль формата : Advanced Simple@L5
Параметр BVOP формата : 2
Параметр QPel формата : Нет
Параметр GMC формата : Без точки перехода
Параметр матрицы формата : Default (H.263)
Идентификатор кодека : XVID
Идентификатор кодека/Подсказка : XviD
Продолжительность : 48 м.
Битрейт : 1645 Кбит/сек
Ширина : 720 пикселей
Высота : 400 пикселей
Соотношение сторон : 16:9
Частота кадров : 23,976 кадра/сек
Цветовое пространство : YUV
Субдискретизация насыщенности : 4:2:0
Битовая глубина : 8 бит
Тип развёртки : Прогрессивная
Метод сжатия : С потерями
Бит/(Пиксели*Кадры) : 0.238
Размер потока : 570 Мбайт (89%)
Библиотека кодирования : XviD 65

Аудио
Идентификатор : 1
Формат : AC-3
Формат/Информация : Audio Coding 3
Расширение режима : CM (complete main)
Параметр Endianness формата : Big
Идентификатор кодека : 2000
Продолжительность : 48 м.
Вид битрейта : Постоянный
Битрейт : 192 Кбит/сек
Каналы : 2 канала
Расположение каналов : Front: L R
Частота : 48,0 КГц
Битовая глубина : 16 бит
Метод сжатия : С потерями
Размер потока : 66,6 Мбайт (10%)
Выравнивание : Соединение по промежуткам
Продолжительность промежутка : 42 мс. (1,00 видеокадр)
Время предзагрузки промежутка : 512 мс.




реклама партнёра


Вернуться к началу
 Профиль Отправить личное сообщение  
 
   Похожие торренты   Автор   Торрент   Размер 
В этой теме нет новых непрочитанных сообщений. Белые волки [02x01-12 из 12] [Боевик, 2014] SATRip

Dracon

302 | 33

6.45 ГБ

В этой теме нет новых непрочитанных сообщений. Массивные белые сиськи / Massive White Tits (2017) WEBRip

salma3

39 | 8

1.48 ГБ

В этой теме нет новых непрочитанных сообщений. Инферно / Inferno (боевик, триллер, драма, криминал, детектив, 2016) WEBRip | Line

marya111

3094 | 146

1.37 ГБ

В этой теме нет новых непрочитанных сообщений. Варг Веум 10 - Ночью все волки серы / Varg Veum 10 - I mørket er alle ulver grå [боевик, триллер, криминал, 2011] BDRip 1080p, Avo

salma3

65 | 18

6.19 ГБ

В этой теме нет новых непрочитанных сообщений. Джек Ричер 2: Никогда не возвращайся / Jack Reacher: Never Go Back (боевик, триллер, криминал, детектив, приключения, 2016) WEBRip | CAM

marya111

4059 | 83

1.37 ГБ

В этой теме нет новых непрочитанных сообщений. Джек Ричер 2: Никогда не возвращайся / Jack Reacher: Never Go Back ( боевик, триллер, криминал, детектив, приключения, 2016) WEBRip 1080p [iTunes]

marya111

307 | 61

4.43 ГБ

В этой теме нет новых непрочитанных сообщений. Джек Ричер 2: Никогда не возвращайся / Jack Reacher: Never Go Back ( боевик, триллер, криминал, детектив, приключения, 2016) WEBRip 1080p | Line

marya111

2888 | 51

4.54 ГБ


Начать новую тему Ответить на тему  [ 1 сообщение ] 




Для Мосгорсуда, Роскомнадзора и рекламодателей:: mosgorsud-torrent[собачка]yandex.ru