Торрент файл
скачать торрент магнет ссылка Добавлен: 03 окт 2014, 13:57
Размер: 8.68 ГБ
Сидеров: 5
Личеров: 3
Автор

СообщениеДобавлено: 17 янв 2014, 16:34 

Не в сети
Аватара пользователя
Дата регистрации:
26 ноя 2013, 12:32
Возраст: 57
Спасибо: 54 / 8
Сообщения: 66
Откуда: СССР
Год выпуска: 2012
Выпущено: Россия , "Мотор Фильм студия"
Жанр: Остросюжетный детектив, криминал
Перевод: Не требуется
Режиссер: Илья Максимов (II)
В ролях: Александр Балуев, Евгений Пронин, Екатерина Стриженова, Валерий Баринов, Наталия Лесниковская, Николай Сердцев, Александр Кузнецов, Михаил Скачков, Дмитрий Буренков, Александр Сергеев, Александра Живова, Наталья Бардо, Вероника Лысакова, Александр Числов, Андрей Москвичев, Дмитрий Артаев, Александр Сигуев, Денис Березин, Макс Уральский, Максим Дромашко, Кристина Савина, Маргарита Иванова-Донская
О фильме: Майор милиции Юрий Шаповалов трудится оперативником в одном из столичных ОВД. Начальство навязывает ему в помощники вчерашнего выпускника юрфака, молодого оперативника по фамилии Гусь. Герои притираются друг к другу, однако сближение не мешает им продолжать конфликтовать по любому поводу. Помимо работы в уголовном розыске, у Шаповалова есть ещё один, нелегальный, источник дохода: за помощью к Шаповалову, имеющему заслуженную репутацию классного сыщика, то и дело обращаются многочисленные знакомые и знакомые знакомых. По их просьбе он проводит неофициальные расследования. Причём берётся Шаповалов не за всё подряд, а лишь за те дела, которые представляют для него особый интерес, профессиональный и, что тоже играет не последнюю роль, финансовый. Вниманием со стороны женщин Шаповалов не обделён. Он же поддерживает длительные отношения с Анной, женой весьма состоятельного человека, который за границей проводит больше времени, чем на родине. Гибель бывшей жены вносит существенные коррективы в жизнь героя: пятнадцатилетняя дочь Маша переезжает к нему, а вместе с ней появляются новые заботы, проблемы и родительские обязанности. Теперь он уже не может позволить себе, как раньше, в любой момент забыться с помощью алкоголя, чтобы хоть на время заглушить не дающее ему покоя чувство вины…

Сэмпл

Качество: SATRip
Видео: 720x400 (1.80:1), 25 fps, XviD build 65 ~1525 kbps avg, 0.21 bit/pixel
Аудио: 48 kHz, AC3 Dolby Digital, 2/0 (L,R) ch, ~192 kbps
Продолжительность: 12 x ~00:45:00
Общее
Полное имя : D:\Shapovalov_(Shapito)_S1_01-16iz16_2012_XviD_SATRip\Shapovalov_(Shapito)_S1_01_iz_16_2012_SATRip.avi
Формат : AVI
Формат/Информация : Audio Video Interleave
Размер файла : 556 Мбайт
Продолжительность : 45 м.
Общий поток : 1727 Кбит/сек
Программа кодирования : VirtualDubMod 1.5.10.3 | http://www.virtualdub-fr.org || (build 2550/release)
Библиотека кодирования : VirtualDub build 35491/release

Видео
Идентификатор : 0
Формат : MPEG-4 Visual
Профиль формата : Advanced Simple@L5
Параметр BVOP формата : 2
Параметр QPel формата : Нет
Параметр GMC формата : Без точки перехода
Параметр матрицы формата : Default (H.263)
Идентификатор кодека : XVID
Идентификатор кодека/Подсказка : XviD
Продолжительность : 45 м.
Битрейт : 1526 Кбит/сек
Ширина : 720 пикселей
Высота : 400 пикселей
Соотношение сторон : 16:9
Частота кадров : 25,000 кадров/сек
Цветовое пространство : YUV
Субдискретизация насыщенности : 4:2:0
Битовая глубина : 8 бит
Тип развёртки : Прогрессивная
Метод сжатия : С потерями
Бит/(Пиксели*Кадры) : 0.212
Размер потока : 491 Мбайт (88%)
Библиотека кодирования : XviD 65

Аудио
Идентификатор : 1
Формат : AC-3
Формат/Информация : Audio Coding 3
Расширение режима : CM (complete main)
Параметр Endianness формата : Big
Идентификатор кодека : 2000
Продолжительность : 45 м.
Вид битрейта : Постоянный
Битрейт : 192 Кбит/сек
Каналы : 2 канала
Расположение каналов : Front: L R
Частота : 48,0 КГц
Битовая глубина : 16 бит
Метод сжатия : С потерями
Размер потока : 61,8 Мбайт (11%)
Выравнивание : Соединение по промежуткам
Продолжительность промежутка : 40 мс. (1,00 видеокадр)
Время предзагрузки промежутка : 512 мс.







реклама партнёра


Вернуться к началу
 Профиль Отправить личное сообщение  
 
   Похожие торренты   Автор   Торрент   Размер 
В этой теме нет новых непрочитанных сообщений. Кости [Серия 01-22 из 24] [Детектив, криминал, 2016] SATRip

Dracon

1 | 2

13.72 ГБ

В этой теме нет новых непрочитанных сообщений. Паутина-9 [Серия 1-24 из 24] [Детектив, криминал, 2016] SATRip

Dracon

500 | 217

14.81 ГБ

В этой теме нет новых непрочитанных сообщений. Беспокойный участок [01-16 серия из 16] [Детектив, криминал, 2014] SATRip

Dracon

100 | 27

9.2 ГБ

В этой теме нет новых непрочитанных сообщений. Подозрение [Серия 1-4 из 4] (Арменак Назикян) [Детектив, криминал, 2014] SatRip

Dracon

6 | 2

2.36 ГБ

В этой теме нет новых непрочитанных сообщений. Тайны следствия-14 [Серия 1-16] [Детектив, драма, криминал, 2014] SatRip

Dracon

19 | 5

9.38 ГБ

В этой теме нет новых непрочитанных сообщений. Косатка [1-20 серия из 20] (Илья Максимов) [Детектив, драма, криминал, 2015] SATRip

Dracon

6 | 2

11.73 ГБ

В этой теме нет новых непрочитанных сообщений. Тень стрекозы [Серия 1-4 из 4] (Наталия Микрюкова) [Детектив, Мелодрама, 2015] SATRip

Dracon

58 | 2

2.45 ГБ


Начать новую тему Ответить на тему  [ 1 сообщение ] 




Для Мосгорсуда, Роскомнадзора и рекламодателей:: mosgorsud-torrent[собачка]yandex.ru