Торрент файл
скачать торрент магнет ссылка Добавлен: 17 янв 2014, 13:48
Размер: 16.41 ГБ
Сидеров: 0
Личеров: 2
Статус: (salma3)
Автор

СообщениеДобавлено: 17 янв 2014, 13:58 

Не в сети
Аватара пользователя
Дата регистрации:
26 ноя 2013, 12:32
Возраст: 56
Спасибо: 52 / 7
Сообщения: 66
Откуда: СССР
Год выпуска: 2012
Выпущено: Россия ,Кинокомпания DiXI TV
Жанр: Детективный сериал
Перевод: Не требуется
Режиссер: Юрий Попович
В ролях: Елена Морозова, Дмитрий Щербина, Анатолий Гущин, Денис Бондарков, Владислав Котлярский, Галина Коньшина, Ангелина Коршунова, Оксана Семёнова, Андрей Лебедев, Николай Дроздовский, Эдуард Рябинин, Венчислав Хотяновский, Анатолий Отраднов, Александр Печенин, Антон Ушаков, Юлия Кокрятская, Евгений Сафронов, Максим Щёголев, Елена Кукушкина
О фильме: Прообразами трех главных героев стали три следователя Главного Следственного Управления Следственного Комитета РФ. Все они - люди высоких званий и действительно гении своего дела. Все дела, используемые в сериале - реальные, по которым найдены и осуждены виновные.
Сэмпл
Качество: DVDRip
Видео: 704x384 , XviD ~1942 kbps
Аудио 48 kHz, AC3 , 2/0 ch, ~192 kbps
Продолжительность: 12 х ~ 01:30:00
Общее
Полное имя : D:\Мои фильмы\Sledstvennyj_komitet_S1_01-12iz12_2012_XviD_DVDRip\Sledstvennyj_komitet_S1_01_iz_12_2012_DVDRip.avi
Формат : AVI
Формат/Информация : Audio Video Interleave
Размер файла : 1,37 Гбайт
Продолжительность : 1 ч. 31 м.
Общий поток : 2144 Кбит/сек
Программа кодирования : VirtualDubMod 1.5.10.3 | http://www.virtualdub-fr.org || (build 2550/release)
Библиотека кодирования : VirtualDubMod build 2550/release

Видео
Идентификатор : 0
Формат : MPEG-4 Visual
Профиль формата : Advanced Simple@L5
Параметр BVOP формата : 2
Параметр QPel формата : Нет
Параметр GMC формата : Без точки перехода
Параметр матрицы формата : Default (MPEG)
Режим смешивания : Сжатый битовый поток
Идентификатор кодека : XVID
Идентификатор кодека/Подсказка : XviD
Продолжительность : 1 ч. 31 м.
Битрейт : 1943 Кбит/сек
Ширина : 704 пикселя
Высота : 384 пикселя
Соотношение сторон : 1,85:1
Частота кадров : 23,976 кадра/сек
Цветовое пространство : YUV
Субдискретизация насыщенности : 4:2:0
Битовая глубина : 8 бит
Тип развёртки : Прогрессивная
Метод сжатия : С потерями
Бит/(Пиксели*Кадры) : 0.300
Размер потока : 1,24 Гбайт (91%)
Библиотека кодирования : XviD 1.2.1 (UTC 2008-12-04)

Аудио
Идентификатор : 1
Формат : AC-3
Формат/Информация : Audio Coding 3
Расширение режима : CM (complete main)
Параметр Endianness формата : Big
Идентификатор кодека : 2000
Продолжительность : 1 ч. 31 м.
Вид битрейта : Постоянный
Битрейт : 192 Кбит/сек
Каналы : 2 канала
Расположение каналов : Front: L R
Частота : 48,0 КГц
Битовая глубина : 16 бит
Метод сжатия : С потерями
Размер потока : 125 Мбайт (9%)
Выравнивание : Разделение по промежуткам
Продолжительность промежутка : 42 мс. (1,00 видеокадр)
Время предзагрузки промежутка : 500 мс.




реклама партнёра


Вернуться к началу
 Профиль Отправить личное сообщение  
 
   Похожие торренты   Автор   Торрент   Размер 
В этой теме нет новых непрочитанных сообщений. След [1400-1449] [Детектив, детективный сериал, 2016] SATRip

marya111

124 | 72

20.59 ГБ

В этой теме нет новых непрочитанных сообщений. След. Последний приют (Детектив, детективный сериал, 2016) HDTV 1080i от MediaClub

marya111

0 | 0

1.14 ГБ

В этой теме нет новых непрочитанных сообщений. След. Таблетка от голода (Детектив, детективный сериал, 2016) HDTV 1080i от MediaClub

marya111

0 | 0

1.08 ГБ

В этой теме нет новых непрочитанных сообщений. ОСА (Новые серии) [076-083 Серии] [Детективный сериал, 2014] SATRip

Dracon

26 | 7

4.2 ГБ

В этой теме нет новых непрочитанных сообщений. Никита-двойная жизнь / Два убийцы / Shattered Image [Детективный триллер, 1998] DVDRip, Avo

salma3

5 | 1

1.37 ГБ

В этой теме нет новых непрочитанных сообщений. Гибель "Курска" - следственный эксперимент (Россия) [Документальный, Техника и Вооружение, Катастрофы, 2015] SATRip

Dracon

3 | 0

479.53 МБ

В этой теме нет новых непрочитанных сообщений. Земляк [01-06 из 06] [Остросюжетный сериал, 2013] SATRip

Dracon

4586 | 2465

4.01 ГБ


Начать новую тему Ответить на тему  [ 1 сообщение ] 




Для Мосгорсуда, Роскомнадзора и рекламодателей:: mosgorsud-torrent[собачка]yandex.ru