Торрент файл
скачать торрент магнет ссылка Добавлен: 31 мар 2014, 12:46
Размер: 22.93 ГБ
Сидеров: 14
Личеров: 15
Автор

СообщениеДобавлено: 14 янв 2014, 20:12 

Не в сети
2 Звезды
Аватара пользователя
Дата регистрации:
10 окт 2010, 20:23
Возраст: 61
Спасибо: 179 / 0
Сообщения: 323
Откуда: КРАСНОГОРСК
Спираль / Helix


Год выпуска: 2014
Выпущено: США,Lynda Obst Productions, Muse Entertainment Enterprises, Sony Pictures Television
Жанр: фантастика, триллер
Продолжительность: 00:44:13
Сезон: 1
Серия: 1-13
Количество серий в сезоне: 13
Перевод: Weirdie
Озвучка:Профессиональная многоголосая закадровая(NewStudio)(Александр Дасевич, Константин Погодаев, Анна Тух)
Субтитры: НЕТ



Режиссер: Дуан Кларк / Duane Clark, Дэвид Слэйд / David Slade, Брэд Тернер / Brad Turner

В ролях: Нил Напье (Dr. Peter Farragut), Джери Райан (Constance Sutton), Хироюки Санада (Dr. Hiroshi Hitaki), Билл Кэмпбелл (Dr. Alan Farragut), Meegwun Fairbrother (Daniel Aerov), Марк Ганиме (Major Sergio Balleseros), Джордан Хэйес (Dr. Sarah Jordan), Катрин Лемье (Dr. Doreen Boyle), Бенуа Прист (Security Guy), Кира Загорский (Dr. Julia Walker)


Сериал расскажет о группе учёных из Центра по Борьбе с Заболеваниями, направленных на высокотехнологичную исследовательскую базу в Арктике для расследования возможной вспышки заболевания и вынужденных вести борьбу за спасение человечества.

Качество : WEB-DLRip-AVC 1080p
Формат: MPEG-4
Видео кодек: H264
Видео: 5509Кбит/сек,1920х1080(16.9),в 23.970кадр/сек,AVC(Baseline@L4.0)(1Ref Frames)
Аудио кодек: AAC
Аудио Russian Dolby Digital 5.1:412Кбит/сек,44.1КГц,6каналов,AAC,(Version4)(LC)

Звуковая дорожка сделана путем наложения чистого голоса озвучивателей на центральный канал оригинальной дорожки. Качество идентично звуковой дорожке.



01. Пилот / Pilot
02. Переносчик / Vector
03. 274 / 274
04. Одиночная нить / Single Strand
05. Белая комната / The White Room
06. Родство / Aniqatiga
07. Нулевой выживший / Survivor Zero
08. Родословная / Bloodline
09. Уровень Экс / Level X
10. Загадка / Fushigi
11. Чёрный дождь / Black Rain
12 Жатва / The Reaping
13 В тени / Dans L'Ombre




General
Полное имя : D:\С Е Р И А Л Ы\Helix_2014_S01_RUS[NewStudio_TV]_DD5.1_x264_Nikolai.Baranov_WEB-DLRip-AVC_(1080p)\Helix_2014_S01E01_RUS[NewStudio_TV]_DD5.1_x264_Nikolai.Baranov_WEB-DLRip-AVC_(1080p).mp4
Формат : MPEG-4
Профиль формата : Base Media
Идентификатор кодека : isom
Размер файла : 1.72 GiB
Продолжительность : 41mn 36s
Режим общего битрейта : Variable
Общий поток : 5 925 Kbps
Название фильма : Almost Human 1x01 Pilot @ AlexFilm
Дата кодирования : UTC 2014-01-13 19:19:09
Дата пометки : UTC 2014-01-13 19:19:09
Программа кодирования : Lavf51.12.1

Video
Идентификатор : 1
Формат : AVC
Формат/Информация : Advanced Video Codec
Профиль формата : Baseline@L4.0
Параметр CABAC формата : No
Параметр ReFrames формата : 1 frame
Параметр GOP формата : M=1, N=12
Идентификатор кодека : avc1
Идентификатор кодека/Информация : Advanced Video Coding
Продолжительность : 41mn 36s
Битрейт : 5 509 Kbps
Ширина : 1 920 pixels
Высота : 1 080 pixels
Соотношение сторон : 16:9
Режим частоты кадров : Constant
Частота кадров : 23.976 fps
Цветовое пространство : YUV
Субдискретизация насыщенности : 4:2:0
Битовая глубина : 8 bits
Тип развёртки : Progressive
Бит/(Пиксели*Кадры) : 0.111
Размер потока : 1.60 GiB (93%)
Язык : English
Дата кодирования : UTC 2014-01-13 19:19:09
Дата пометки : UTC 2014-01-13 19:19:09

Audio
Идентификатор : 2
Формат : AAC
Формат/Информация : Advanced Audio Codec
Профиль формата : LC
Идентификатор кодека : 40
Продолжительность : 41mn 36s
Вид битрейта : Variable
Битрейт : 412 Kbps
Каналы : 6 channels
Расположение каналов : Front: L C R, Side: L R, LFE
Частота : 44.1 KHz
Метод сжатия : Lossy
Размер потока : 123 MiB (7%)
Язык : Russian
Дата кодирования : UTC 2014-01-13 19:19:09
Дата пометки : UTC 2014-01-13 19:19:09









1. Открыть торрент
2. Снять галки с тех файлов торрента, которые мы не хотим закачивать. Оставляем только на нужных нам файлах (файле).
3. Нажать О.К.

В клиенте utorrent

Инструкция

1) Открыть торрент


2) Снять галки с тех файлов торрента, которые мы не хотим закачивать:

* либо вручную, снимая с каждого файла галку( скрин №1)
* либо, нажав кнопку "Снять метки (Select None)", сняв сразу со всех файлов(скрин №2)
№1

№2

Оставляем только на нужных нам файлах (файле).

3)Нажать О.К





Внимание!!! 31.03. 2014. РАЗДАЧА ОБНОВЛЕНА.ФИНАЛ СЕЗОНА.ОБНОВИТЕ ТОРЕНТ ФАЙЛ.ПРИЯТНОГО ПРОСМОТРА .

Релиз от: Nikolai.Baranov







_________________

Легко быть оптимистом, когда судьба не валит с ног тяжелыми ударами, а лишь иногда легонько шлепает по заднице.



реклама партнёра


Вернуться к началу
 Профиль Отправить личное сообщение  
 
   Похожие торренты   Автор   Торрент   Размер 
В этой теме нет новых непрочитанных сообщений. Спираль / Helix (сезон 1, серия 1-11 из 13) (Дуан Кларк, Дэвид Слэйд, Брэд Тернер) [2014, , фантастика, триллер , WEB-DLRip-AVC 1080p] [DD5.1] [MVO] [AlexFilm]

Nikolai.Baranov

0 | 3

19.47 ГБ

В этой теме нет новых непрочитанных сообщений. Спираль / Helix (Сезон 1-2, Серии 1-24 из 26) (Дуан Кларк, Майк Рол, Брэд Тёрнер) [2014-2015, Фантастика, триллер , WEBDLRip] [MVO] [AlexFilm]

Враг Нароода

1 | 2

20.71 ГБ

В этой теме нет новых непрочитанных сообщений. Спираль / Helix (Сезон 1-2, Серии 1-26 из 26) (Дуан Кларк, Майк Рол, Брэд Тёрнер) [2014-2015, Фантастика, триллер , WEBDLRip] [MVO] [AlexFilm]

Враг Нароода

0 | 4

22.19 ГБ

В этой теме нет новых непрочитанных сообщений. Спираль / Helix [02x01-07 из 13] (Дуан Кларк, Майк Рол, Брэд Тернер) [2015, фантастика, триллер, WEB-DLRip | LostFilm]

Nickolas3435

22 | 27

2.97 ГБ

В этой теме нет новых непрочитанных сообщений. Спираль / Helix [Season 2 еpisodes 1-13 of 13] (Дуан Кларк) [фантастика, триллер, 2015] WEB-DLRip, Mvo [AlexFilm]

Dracon

2 | 3

6.36 ГБ

В этой теме нет новых непрочитанных сообщений. Спираль / Helix / 1 сезон 1-7 серии из 13 [Фантастика, триллер, 2014] WEB-DLRip, Mvo [NewStudio]

salma3

3 | 4

3.42 ГБ

В этой теме нет новых непрочитанных сообщений. Хроники Шаннары / The Shannara Chronicles (Сезон 1, Серия 1-10 из 10) (Брэд Тёрнер, Джонатан Либесман, Джеймс) [2016 , , Фантастика, фэнтези, приключения, экранизация , WEB-DLRip 1080p ] [MVO] [NewStudio , AlexFilm , LostFilm , Jaskier]

Враг Нароода

0 | 0

20.86 ГБ


Начать новую тему Ответить на тему  [ 1 сообщение ] 




Для Мосгорсуда, Роскомнадзора и рекламодателей:: mosgorsud-torrent[собачка]yandex.ru