Торрент файл
скачать торрент магнет ссылка Добавлен: 13 янв 2014, 02:08
Размер: 13.57 ГБ
Сидеров: 433
Личеров: 1157
Автор

СообщениеДобавлено: 13 янв 2014, 02:08 

Не в сети
Аватара пользователя
Дата регистрации:
13 янв 2014, 01:16
Спасибо: 12 / 1
Сообщения: 10
Откуда: ʞ s u ɐ ʎ ɹ q


Год выпуска: 2013
Жанр: Драма, детектив
Выпущено: Великобритания, Hartswood Films, BBC Wales, Masterpiece Theatre



Режиссер: Пол МакГиган

В ролях: Бенедикт Камбербэтч, Мартин Фриман, Уна Стаббс, Лу Брили, Руперт Грейвз, Марк Гатисс, Зои Телфорд, Винетт Робинсон, Таня Муди, Джонатан Арис



Совместная деятельность Шерлока и Джона подвергается испытанию, когда Джон влюбляется в Мэри Морстен. Она - восприимчивая, умная девушка, и демонстрация Холмсом своих талантов не производит на нее никакого впечатления. После смерти Мориарти, Холмс оказывается втянутым в битву с другим умным противником - могущественным Чарльзом Августом Магнуссеном, который держит в руках секреты всего мира. Для Шерлока и Джона снова начинается игра...




Качество: HDTV 1080i
Видео: MPEG-4 AVC, ~ 6000 Кбит/с, 1920x1080
Аудио: МР2, 2 ch, 256 Кбит/с
Продолжительность: ~ 01:30:00
Перевод: Дублированный (Первый Канал)


Общее
Идентификатор : 1 (0x1)
Полное имя : D:Sherlok.(3.sezon).2014.x264.HDTV.1080i.NikolspupSherlok.(3.sezony.1.seriya.iz.3).2014.x264.HDTV.1080i.Nikolspup.ts
Формат : MPEG-TS
Размер файла : 3,86 Гбайт
Продолжительность : 1 ч. 26 м.
Режим общего битрейта : Переменный
Общий поток : 6391 Кбит/сек
Максимальный общий битрейт : 35,5 Мбит/сек

Видео
Идентификатор : 4113 (0x1011)
Идентификатор меню : 1 (0x1)
Формат : AVC
Формат/Информация : Advanced Video Codec
Профиль формата : High@L4.1
Параметр CABAC формата : Да
Параметр ReFrames формата : 3 кадра
Идентификатор кодека : 27
Продолжительность : 1 ч. 26 м.
Вид битрейта : Переменный
Битрейт : 5817 Кбит/сек
Максимальный битрейт : 40,0 Мбит/сек
Ширина : 1920 пикселей
Высота : 1080 пикселей
Соотношение сторон : 16:9
Частота кадров : 25,000 кадров/сек
Цветовое пространство : YUV
Субдискретизация насыщенности : 4:2:0
Битовая глубина : 8 бит
Тип развёртки : Прогрессивная
Бит/(Пиксели*Кадры) : 0.112
Размер потока : 3,52 Гбайт (91%)

Аудио
Идентификатор : 4352 (0x1100)
Идентификатор меню : 1 (0x1)
Формат : MPEG Audio
Версия формата : Version 1
Профиль формата : Layer 2
Идентификатор кодека : 4
Продолжительность : 1 ч. 26 м.
Вид битрейта : Постоянный
Битрейт : 256 Кбит/сек
Каналы : 2 канала
Частота : 48,0 КГц
Метод сжатия : С потерями
Размер потока : 159 Мбайт (4%)
Язык : English





_________________




реклама партнёра


Вернуться к началу
 Профиль Отправить личное сообщение  
 
   Похожие торренты   Автор   Торрент   Размер 
В этой теме нет новых непрочитанных сообщений. Шерлок / Sherlock [03x01-02 из 03] [Драма, детектив, 2013] HDTV 1080i, Dub [Первый канал]

Ανδρέας

832 | 950

7.73 ГБ

В этой теме нет новых непрочитанных сообщений. Шерлок / Sherlock [03x01-02 из 03] [Драма, детектив, 2014] HDTVRip, Dub [Первый канал]

Dracon

2392 | 1944

1.77 ГБ

В этой теме нет новых непрочитанных сообщений. Шерлок / Sherlock [03x01-03 из 03] (2014) HDTVRip |dub | Первый канал

RusTan

3360 | 4088

2.66 ГБ

В этой теме нет новых непрочитанных сообщений. Шерлок : Безобразная невеста / Sherlock: The Abominable Bride (Дуглас МакКиннон) [триллер, драма, криминал, детектив, 2015] HDTV 1080p, Dub+Sub [Первый канал]

Dracon

2654 | 43

5.22 ГБ

В этой теме нет новых непрочитанных сообщений. Шерлок: Безобразная невеста / Sherlock: The Abominable Bride (Дуглас МакКиннон) [триллер, драма, криминал, детектив, 2015] WEBRip, Dub+Sub [Первый канал]

Dracon

2912 | 38

1.1 ГБ

В этой теме нет новых непрочитанных сообщений. Шерлок: Безобразная невеста / Sherlock: The Abominable Bride (Дуглас МакКиннон) [триллер, драма, криминал, детектив, 2015] WEBRip 720p, Dub+Sub [Первый канал]

Dracon

6110 | 250

2.48 ГБ

В этой теме нет новых непрочитанных сообщений. Шерлок: Безобразная невеста / Sherlock: The Abominable Bride (Дуглас МакКиннон) [триллер, драма, криминал, детектив, 2015] WEBRip 1080p, Dub+Sub [Первый канал]

Dracon

8420 | 147

3.48 ГБ


СообщениеДобавлено: 13 янв 2014, 10:11 

Не в сети
Зам. Админа
Аватара пользователя
Дата регистрации:
02 дек 2010, 12:39
Спасибо: 12458 / 214
Сообщения: 27968
меняем название или буду закрывать-название / оригинальное [сезон серии] [жанр, 2014] HDTV 1080i,перевод [Первый канал]
зарубежное кино-название / оригинальное [жанр, год] качество, перевод
наше кино-название [жанр, год] качество


Вернуться к началу
 Профиль  
 
Начать новую тему Ответить на тему  [ Сообщений: 2 ] 




Для Мосгорсуда, Роскомнадзора и рекламодателей:: mosgorsud-torrent[собачка]yandex.ru