Торрент файл
скачать торрент магнет ссылка Добавлен: 31 авг 2014, 14:37
Размер: 10.87 ГБ
Сидеров: 7
Личеров: 3
Автор

СообщениеДобавлено: 11 янв 2014, 17:37 

Не в сети
Аватара пользователя
Дата регистрации:
26 ноя 2013, 12:32
Возраст: 56
Спасибо: 52 / 7
Сообщения: 66
Откуда: СССР
Год выпуска: 2009
Выпущено: Россия ,DIXI-TV
Жанр: Боевик, драма
Перевод: Не требуется
Режиссер: Рустам Уразаев, Виктор Конисевич
В ролях: Эдуард Флёров, Роман Курцын, Тимур Ефременков, Дарья Повереннова, Виктория Фишер, Александр Баринов, Нина Гогаева, Владислав Павлов, Александр Фисенко, Шухрат Иргашев, Сергей Фишер, Дмитрий Миронов, Геннадий Подшивалов, Наталья Коновалова, Игорь Карлов, Дмитрий Антимонов, Александр Горохов (II), Александр Воробьёв (II), Анастасия Тюфякина, Дмитрий Родионов (II), Никита Новиков, Яна Белугина, Александр Зельский, Дмитрий Белогуров, Илья Кремнев, Сергей Холмогоров, Марина Налетова, Павел Фалов, Ольга Жилова, Дмитрий Ефремов, Магомед Аваданский, Ангелина Ноздрина, Сергей Болотаев, Адам Булгучев, Григорий Меликбекян, Дмитрий Чибизов, Сергей Колокольцев, Илья Гремнев, Алихан Закиров, Фёдор Старых, Татьяна
О фильме: Максу Калинину 35 лет, он бывший офицер разведки ВДВ, оперативник УБОП. После 10 лет работы его увольняют со службы по фиктивному обвинению, без права в дальнейшем работать в органах правопорядка, а опасный преступник выходит на свободу без предъявления обвинения. Это Калинин не может простить. Проследив за отпущенным на свободу преступником, Калинин в тот же вечер вершит собственное правосудие, убивая его. С этого дня Калинин понимает, чем он будет заниматься, - он будет бороться с беззаконием своими методами. И ЗАКОН у него будет свой... И НАКАЗАНИЕ только одно – смерть... Калинин собирает команду из таких же как и он. Преступные деньги, которыми удается завладеть, бойцы оставляют себе и постепенно маленькая команда, превращается в опасную карательную организацию, которую бояться все и теперь они находятся между двух зол – криминального мира, который объявляет огромные деньги за их «головы» и своих бывших коллег, которые начинают охоту на «оборотней»...
Сэмпл
Качество: DVDRip
Видео: 720x400 (1.80:1), 25 fps, XviD MPEG-4 ~1101 kbps avg, 0.15 bit/pixel
Аудио: 48 kHz, AC3 Dolby Digital, 2/0 (L,R) ch, ~192 kbps
Продолжительность: 25 x ~ 00:47:55
Общее
Полное имя : D:\Мои фильмы\Mech_S1_01-25iz25_2009_XviD_DVDRip\Mech_S1_01_iz_25_2009_DVDRip.avi
Формат : AVI
Формат/Информация : Audio Video Interleave
Размер файла : 445 Мбайт
Продолжительность : 47 м.
Общий поток : 1303 Кбит/сек
Программа кодирования : VirtualDubMod 1.5.10.2 (build 2542/release)
Библиотека кодирования : VirtualDub build 35491/release

Видео
Идентификатор : 0
Формат : MPEG-4 Visual
Профиль формата : Advanced Simple@L5
Параметр BVOP формата : 2
Параметр QPel формата : Нет
Параметр GMC формата : Без точки перехода
Параметр матрицы формата : Default (H.263)
Режим смешивания : Сжатый битовый поток
Идентификатор кодека : XVID
Идентификатор кодека/Подсказка : XviD
Продолжительность : 47 м.
Битрейт : 1101 Кбит/сек
Ширина : 720 пикселей
Высота : 400 пикселей
Соотношение сторон : 16:9
Частота кадров : 25,000 кадров/сек
Цветовое пространство : YUV
Субдискретизация насыщенности : 4:2:0
Битовая глубина : 8 бит
Тип развёртки : Прогрессивная
Метод сжатия : С потерями
Бит/(Пиксели*Кадры) : 0.153
Размер потока : 376 Мбайт (85%)
Библиотека кодирования : XviD 65

Аудио
Идентификатор : 1
Формат : AC-3
Формат/Информация : Audio Coding 3
Расширение режима : CM (complete main)
Параметр Endianness формата : Big
Идентификатор кодека : 2000
Продолжительность : 47 м.
Вид битрейта : Постоянный
Битрейт : 192 Кбит/сек
Каналы : 2 канала
Расположение каналов : Front: L R
Частота : 48,0 КГц
Битовая глубина : 16 бит
Метод сжатия : С потерями
Размер потока : 65,6 Мбайт (15%)
Выравнивание : Соединение по промежуткам
Продолжительность промежутка : 40 мс. (1,00 видеокадр)
Время предзагрузки промежутка : 512 мс.





реклама партнёра


Вернуться к началу
 Профиль Отправить личное сообщение  
 
   Похожие торренты   Автор   Торрент   Размер 
В этой теме нет новых непрочитанных сообщений. Робин Гуд / Robin Hood [S01-03] [боевик, мелодрама, драма, приключения, 2006-2009] DVDRip, Mvo [NovaFilm]

salma3

107 | 24

14.91 ГБ

В этой теме нет новых непрочитанных сообщений. Жук / Бизору / Besouro [Боевик, драма, приключения, биография, 2009] DVD-9, Mvo+Sub

salma3

8 | 3

5.45 ГБ

В этой теме нет новых непрочитанных сообщений. Камера 211 / Celda 211 [Боевик, криминальная драма, 2009] BDRip, Dub [КПК]

salma3

8 | 2

488.36 МБ

В этой теме нет новых непрочитанных сообщений. Филантроп / The Philanthropist [01-08 из 08] [боевик, драма, приключения, 2009] HDTVRip, Avo

salma3

60 | 5

2.99 ГБ

В этой теме нет новых непрочитанных сообщений. Ищущий азарта / Kick [Комедия, мелодрама, боевик, 2009] DVDRip, Avo

salma3

8 | 2

815.22 МБ

В этой теме нет новых непрочитанных сообщений. Смертоносный воин / Death Warrior [Боевик, драма, 2009] HDRip, Mvo+Dvo

salma3

195 | 22

1.45 ГБ

В этой теме нет новых непрочитанных сообщений. Жертва / Kurbaan [боевик, триллер, драма, мелодрама, 2009] HDRip, Mvo [Zee TV]

salma3

15 | 4

1.46 ГБ


Начать новую тему Ответить на тему  [ 1 сообщение ] 




Для Мосгорсуда, Роскомнадзора и рекламодателей:: mosgorsud-torrent[собачка]yandex.ru