Торрент файл
скачать торрент магнет ссылка Добавлен: 23 ноя 2013, 14:54
Размер: 2.81 ГБ
Сидеров: 6
Личеров: 2
Статус: (Dracon)
Автор

СообщениеДобавлено: 23 ноя 2013, 14:54 

Не в сети
Зам. Админа
Аватара пользователя
Дата регистрации:
02 дек 2010, 12:39
Спасибо: 12461 / 214
Сообщения: 27968
Год выпуска: 2013
Страна: Россия / "ЭсЭф Продакшн"
Жанр: мелодрама, детектив, биография
Продолжительность: 4 серии ~ 45 мин.

Перевод: не требуется
Cубтитры: нет
Оригинальная аудиодорожка: русский

Режиссер: Елена Николаева

В ролях: Дмитрий Певцов, Александр Балуев, Ольга Будина, Ольга Дроздова, Екатерина Молоховская, Ева Авеева, Иван Рудаков, Витас Эйзенах, Александр Лучинин, Марианна Шульц, Анжелика Каширина, Константин Стрельников...

Описание: Великий физик всю свою жизнь был предан науке, в его жизни не было места романтическим отношениям, пока он не познакомился с Маргаритой Коненковой. Она стала единственной женщиной в его жизни, к которой он смог испытать очень сильные романтические чувства. Маргарита была одной из известных обольстительниц того времени. Под ее чарами находилось очень много знаменитых личностей той эпохи.
Эйнштейн не уставал прикладывать массу усилий, чтобы снова и снова встретиться с любимой, и с огромным нетерпением ждал каждую их новую встречу. А при встречах он с особой радостью рассказывал ей обо всех своих открытиях и достижениях в области науки. Но даже в самых смелых мыслях гениальному физику не могло прийти в голову, что Маргарита, на самом деле, — сотрудник НКВД. Поэтому она записывала все услышанное, а потом отправляла записи в Россию, включая информацию о том, как продвигается ядерный проект…



Качество: DVDRip-AVC (DVD9 R5)
Формат: MKV
Видео: 720x574@1024x574 (16:9), 25.000 fps, H264 ~ 2006 kbps avg, 0.194 bit/pixel
Аудио: 48 kHz, АС3 2 ch, 192 kbps, русский

Общее
Полное имя : Einshtein.teoriya.lubvi.2013.O.DVDRip-AVC_[New-Team]_by_avproh\01.mkv
Формат : Matroska
Версия формата : Version 4 / Version 2
Размер файла : 722 Мбайт
Продолжительность : 45 м.
Общий поток : 2199 Кбит/сек
Дата кодирования : UTC 2013-11-23 10:09:57
Программа кодирования : mkvmerge v6.5.0 ('Isn't she lovely') built on Oct 20 2013 12:50:05
Библиотека кодирования : libebml v1.3.0 + libmatroska v1.4.1

Видео
Идентификатор : 1
Формат : AVC
Формат/Информация : Advanced Video Codec
Профиль формата : High@L4.1
Параметр CABAC формата : Да
Параметр ReFrames формата : 6 кадров
Идентификатор кодека : V_MPEG4/ISO/AVC
Продолжительность : 45 м.
Битрейт : 2006 Кбит/сек
Ширина : 720 пикселей
Высота : 574 пикселя
Соотношение сторон : 16:9
Режим частоты кадров : Постоянный
Частота кадров : 25,000 кадров/сек
Цветовое пространство : YUV
Субдискретизация насыщенности : 4:2:0
Битовая глубина : 8 бит
Тип развёртки : Прогрессивная
Бит/(Пиксели*Кадры) : 0.194
Размер потока : 644 Мбайт (89%)
Библиотека кодирования : x264 core 138 r2356 a1d3d17
Настройки программы : cabac=1 / ref=6 / deblock=1:-2:-1 / analyse=0x3:0x113 / me=umh / subme=10 / psy=1 / psy_rd=1.00:0.05 / mixed_ref=1 / me_range=32 / chroma_me=1 / trellis=2 / 8x8dct=1 / cqm=0 / deadzone=21,11 / fast_pskip=0 / chroma_qp_offset=-3 / threads=9 / lookahead_threads=1 / sliced_threads=0 / nr=0 / decimate=0 / interlaced=0 / bluray_compat=0 / constrained_intra=0 / bframes=8 / b_pyramid=2 / b_adapt=2 / b_bias=0 / direct=3 / weightb=1 / open_gop=0 / weightp=2 / keyint=250 / keyint_min=25 / scenecut=40 / intra_refresh=0 / rc=2pass / mbtree=0 / bitrate=2006 / ratetol=1.0 / qcomp=0.60 / qpmin=0 / qpmax=69 / qpstep=4 / cplxblur=20.0 / qblur=0.5 / ip_ratio=1.40 / pb_ratio=1.30 / aq=1:1.00
Язык : Russian
Default : Да
Forced : Нет

Аудио
Идентификатор : 2
Формат : AC-3
Формат/Информация : Audio Coding 3
Расширение режима : CM (complete main)
Параметр Endianness формата : Big
Идентификатор кодека : A_AC3
Продолжительность : 45 м.
Вид битрейта : Постоянный
Битрейт : 192 Кбит/сек
Каналы : 2 канала
Расположение каналов : Front: L R
Частота : 48,0 КГц
Битовая глубина : 16 бит
Метод сжатия : С потерями
Размер потока : 63,0 Мбайт (9%)
Язык : Russian
Default : Да
Forced : Нет






реклама партнёра


Вернуться к началу
 Профиль  
 
   Похожие торренты   Автор   Торрент   Размер 
В этой теме нет новых непрочитанных сообщений. Диана: История любви / Diana [драма, мелодрама, биография, 2013] Blu-Ray 1080p, Dub+Sub [Лицензия]

Dracon

0 | 3

16.88 ГБ

В этой теме нет новых непрочитанных сообщений. Диана: История любви / Diana [драма, мелодрама, биография, 2013] Blu-Ray Remux 1080p, Dub+Sub [Лицензия]

Dracon

2 | 2

14.77 ГБ

В этой теме нет новых непрочитанных сообщений. Диана: История любви / Diana [драма, мелодрама, биография, 2013] WEBRip, Dub

Dracon

2272 | 184

1.58 ГБ

В этой теме нет новых непрочитанных сообщений. Диана: История любви / Diana [драма, мелодрама, биография, 2013] WEB-DL 720p, Dub [iTunes]

Dracon

20 | 5

3.6 ГБ

В этой теме нет новых непрочитанных сообщений. Диана: История любви / Diana [драма, мелодрама, биография, 2013] HDRip, Dub [iTunes]

Dracon

34 | 4

2.05 ГБ

В этой теме нет новых непрочитанных сообщений. Диана: История любви / Diana [драма, мелодрама, биография, 2013] BDRip 720p, Dub [iTunes]

Dracon

71 | 21

4.67 ГБ

В этой теме нет новых непрочитанных сообщений. Мечты сбываются! / One Chance [драма, комедия, мелодрама, биография, 2013] HDRip, Mvo [Лицензия]

Dracon

430 | 12

1.46 ГБ


Начать новую тему Ответить на тему  [ 1 сообщение ] 




Для Мосгорсуда, Роскомнадзора и рекламодателей:: mosgorsud-torrent[собачка]yandex.ru