Торрент файл
скачать торрент магнет ссылка Добавлен: 14 ноя 2013, 15:55
Размер: 19.8 ГБ
Сидеров: 2
Личеров: 2
Автор

СообщениеДобавлено: 09 ноя 2013, 22:47 

Не в сети
2 Звезды
Аватара пользователя
Дата регистрации:
10 окт 2010, 20:23
Возраст: 61
Спасибо: 179 / 0
Сообщения: 323
Откуда: КРАСНОГОРСК
Крик совы (Особые полномочия)




Год выпуска: 2013
Выпущено:Выпущено: РОССИЯ ,, "Щука", ФАБЕРЖЕ ПРОДАКШН
Жанр: Детектив
Продолжительность: 00:51:00
Серия: 1-10
Количество серий в сезоне : 10
Перевод:НЕ ТРЕБУЕТСЯ
Субтитры : отсутствуют



Режиссер: Олег Погодин

В ролях: Сергей Пускепалис, Андрей Мерзликин, Мария Миронова, Евгений Дятлов, Андрей Феськов, Анатолий Васильев, Игорь Савочкин, Серафима Низовская, Василий Бочкарёв, Сергей Юшкевич, Наталья Высочанская, Александр Марушев, Евгения Дмитриева, Эрнст Романов, Эра Зиганшина, Евгений Ганелин, Николай Харитонов, Владимир Матвеев, Анна Уколова, Олег Алмазов, Александр Нестеров, Наталья Данилова, Аркадий Волгин, Сергей Барковский, Наталья Ткаченко, Анатолий Горин, Геннадий Алимпиев


1957 год, время хрущевской "оттепели". Городок Остров Псковской области сотрясает череда дерзких преступлений. При стычке бандитов с правоохранительными органами тяжело ранен один из лучших сотрудников местной милиции – капитан Юрий Сиротин. В бессознательном состоянии он разговаривает по-немецки, что приводит к служебному расследованию, которое поручено вести сотруднику областного ГБ Ивану Митину. В Острове ему приходится взаимодействовать с майором милиции Андреем Балахниным – лучшим другом подозреваемого Сиротина. Балахнин и Митин, не слишком симпатизирующие друг другу, влюбляются в одну женщину – работницу почты Нину. Расследование вытаскивает на свет множество мучительных тайн, которыми пронизана жизнь обитателей Острова со времен войны.

Качество : HDTVRip-AVC 1080p
Формат: MPEG-4
Видео кодек: H264
Видео: 5224Кбит/сек,1920х1080(16.9),в 25.000кадр/сек,AVC(Baseline@L4.0)(1Ref Frames)
Аудио кодек: AAC
Аудио Russian Dolby Digital 5.1:295Кбит/сек,44.1КГц,6каналов,AAC,(Version4)(LC)

Звуковая дорожка сделана путем наложения чистого голоса озвучивателей на центральный канал оригинальной дорожки. Качество идентично звуковой дорожке.


General
Полное имя : D:\С Е Р И А Л Ы\Крик совы\Krik_Sovy_2013__S01_RUS[1kanal_Russia]_DD5.1_x264_Nikolai.Baranov_HDTVRip-AVC__(1080p)\Krik_Sovy_2013__Е01_RUS[1kanal_Russia]_DD5.1_x264_Nikolai.Baranov_HDTVRip-AVC__(1080p).mp4
Формат : MPEG-4
Профиль формата : Base Media
Идентификатор кодека : isom
Размер файла : 1.98 GiB
Продолжительность : 51mn 13s
Режим общего битрейта : Variable
Общий поток : 5 523 Kbps
Дата кодирования : UTC 2013-11-06 17:43:51
Дата пометки : UTC 2013-11-06 17:43:51
Программа кодирования : Lavf51.12.1

Video
Идентификатор : 1
Формат : AVC
Формат/Информация : Advanced Video Codec
Профиль формата : Baseline@L4.0
Параметр CABAC формата : No
Параметр ReFrames формата : 1 frame
Параметр GOP формата : M=1, N=12
Идентификатор кодека : avc1
Идентификатор кодека/Информация : Advanced Video Coding
Продолжительность : 51mn 13s
Вид битрейта : Variable
Битрейт : 5 224 Kbps
Максимальный битрейт : 7 500 Kbps
Ширина : 1 920 pixels
Высота : 1 080 pixels
Соотношение сторон : 16:9
Режим частоты кадров : Constant
Частота кадров : 25.000 fps
Частота кадров в оригинале : 24.000 fps
Цветовое пространство : YUV
Субдискретизация насыщенности : 4:2:0
Битовая глубина : 8 bits
Тип развёртки : Progressive
Бит/(Пиксели*Кадры) : 0.101
Размер потока : 1.87 GiB (95%)
Дата кодирования : UTC 2013-11-06 17:43:51
Дата пометки : UTC 2013-11-06 17:43:51

Audio
Идентификатор : 2
Формат : AAC
Формат/Информация : Advanced Audio Codec
Профиль формата : LC
Идентификатор кодека : 40
Продолжительность : 51mn 13s
Вид битрейта : Variable
Битрейт : 295 Kbps
Каналы : 6 channels
Расположение каналов : Front: L C R, Side: L R, LFE
Частота : 44.1 KHz
Метод сжатия : Lossy
Размер потока : 108 MiB (5%)
Дата кодирования : UTC 2013-11-06 17:43:51
Дата пометки : UTC 2013-11-06 17:43:51









1. Открыть торрент
2. Снять галки с тех файлов торрента, которые мы не хотим закачивать. Оставляем только на нужных нам файлах (файле).
3. Нажать О.К.

В клиенте utorrent

Инструкция

1) Открыть торрент


2) Снять галки с тех файлов торрента, которые мы не хотим закачивать:

* либо вручную, снимая с каждого файла галку( скрин №1)
* либо, нажав кнопку "Снять метки (Select None)", сняв сразу со всех файлов(скрин №2)
№1

№2

Оставляем только на нужных нам файлах (файле).

3)Нажать О.К




Внимание!!! 14.11. 2013. РАЗДАЧА ОБНОВЛЕНА.ФИНАЛ .ОБНОВИТЕ ТОРЕНТ ФАЙЛ.ВСЕМ ЗА ПОДДЕРЖКУ РАЗДАЧИ И ТЕРПЕНИЕ.ПРИЯТНОГО ПРОСМОТРА.



Релиз от: Nikolai.Baranov







_________________

Легко быть оптимистом, когда судьба не валит с ног тяжелыми ударами, а лишь иногда легонько шлепает по заднице.



реклама партнёра


Вернуться к началу
 Профиль Отправить личное сообщение  
 
   Похожие торренты   Автор   Торрент   Размер 
В этой теме нет новых непрочитанных сообщений. Крик Совы / The Cry of the Owl [Триллер, драма, 2009] BDRip 1080p, Dvo+Sub

salma3

10 | 7

8.23 ГБ

В этой теме нет новых непрочитанных сообщений. Нюхач / NYUHACH (серия 1-8 из 8) (Артем Литвиненко) [2013, Детектив , HDTVRip-AVC 1080p] [DD5.1]

Nikolai.Baranov

0 | 2

16.24 ГБ

В этой теме нет новых непрочитанных сообщений. Шеф 2 [S02] (Олег Ларин) [Боевик, криминал, детектив, 2013] HDTVRip

Dracon

481 | 213

17.19 ГБ

В этой теме нет новых непрочитанных сообщений. Шеф 2 [S02] (Олег Ларин) [Боевик, криминал, детектив, 2013] HDTVRip 720p, Mvo

Dracon

73 | 155

49.78 ГБ

В этой теме нет новых непрочитанных сообщений. Шеф-3:Новая жизнь (Сезон 3, Серия 1-8 из 32) (Олег Ларин) [2015, Криминальная драма , HDTVRip 1080p]

Враг Нароода

В этой теме нет новых непрочитанных сообщений. Крик и снова крик / Scream and Scream Again [фантастика, триллер, криминал, 1970] HDTVRip, Dvo [НТВ+]

salma3

39 | 3

1.37 ГБ

В этой теме нет новых непрочитанных сообщений. Крик / Scream / 2 сезон 1-10 серия из 10 [ужасы, криминал, детектив, 2016] WEB-DLRip, Mvo [LostFilm]

salma3

124 | 82

6.45 ГБ


Начать новую тему Ответить на тему  [ 1 сообщение ] 




Для Мосгорсуда, Роскомнадзора и рекламодателей:: mosgorsud-torrent[собачка]yandex.ru