Торрент файл
скачать торрент магнет ссылка Добавлен: 28 окт 2013, 16:41
Размер: 5.09 ГБ
Сидеров: 99
Личеров: 42
Автор

СообщениеДобавлено: 28 окт 2013, 16:41 

Не в сети
Супермодератор
Аватара пользователя
Дата регистрации:
15 фев 2012, 16:44
Возраст: 27
Спасибо: 5130 / 2089
Сообщения: 17349
Каин. Исключение из правил / Caïn

Год выхода: 2012
Жанр: криминал
Режиссер: Бертран Артурус
В ролях: Брюно Дебранд, Жюли Деларм, Фредерик Пэльжэ, Смади Вольфман, Анн Суарес, Ив Верховен, Александр Тибо, Марушка Детмерс

О фильме:
Полицейский сериал с необычным главным героем — капитаном угрозыска, прикованным к инвалидной коляске после аварии на мотоцикле, на котором он значительно превысил скорость, находясь под воздействием наркотиков.

С черным юмором и сарказмом относясь к своей инвалидности, Фред Каин цинично расследует сложные преступления и убийства в мире «двуногих»…



Страна: Франция
Продолжительность: ~55 минут серия
Перевод: Профессиональный (многоголосый закадровый) [Компания «Игмар» для «Много ТВ»]

Файл
Кодек: XviD / AC3
Качество: SATRip
Видео: XviD, 720x400 (16:9), 25 fps, ~1500 kbps
Звук: AC-3, 2 ch, 192 kbps
Sample
General
Complete name : /media/torrent/Kain.Isklyuchenie.iz.pravil.2012.XviD.dj_zum/01.avi
Format : AVI
Format/Info : Audio Video Interleave
File size : 651 MiB
Duration : 54mn 9s
Overall bit rate : 1 680 Kbps
Writing application : VirtualDubMod 1.5.10.3 | http://www.virtualdub-fr.org || (build 2550/release)
Writing library : VirtualDubMod build 2550/release

Video
ID : 0
Format : MPEG-4 Visual
Format profile : Advanced Simple@L5
Format settings, BVOP : 2
Format settings, QPel : No
Format settings, GMC : No warppoints
Format settings, Matrix : Custom
Codec ID : XVID
Codec ID/Hint : XviD
Duration : 54mn 9s
Bit rate : 1 478 Kbps
Width : 720 pixels
Height : 400 pixels
Display aspect ratio : 16:9
Frame rate : 25.000 fps
Color space : YUV
Chroma subsampling : 4:2:0
Bit depth : 8 bits
Scan type : Progressive
Compression mode : Lossy
Bits/(Pixel*Frame) : 0.205
Stream size : 573 MiB (88%)
Writing library : XviD 1.2.1 (UTC 2008-12-04)

Audio
ID : 1
Format : AC-3
Format/Info : Audio Coding 3
Mode extension : CM (complete main)
Format settings, Endianness : Big
Codec ID : 2000
Duration : 54mn 9s
Bit rate mode : Constant
Bit rate : 192 Kbps
Channel(s) : 2 channels
Channel positions : Front: L R
Sampling rate : 48.0 KHz
Bit depth : 16 bits
Compression mode : Lossy
Stream size : 74.4 MiB (11%)
Alignment : Split accross interleaves
Interleave, duration : 40 ms (1.00 video frame)
Interleave, preload duration : 500 ms




реклама партнёра


Вернуться к началу
 Профиль Отправить личное сообщение  
 
   Похожие торренты   Автор   Торрент   Размер 
В этой теме нет новых непрочитанных сообщений. Cain's Alibi - Cain's Alibi [1996, Hard Rock, Heavy Metal, MP3]

PriZraK

9 | 4

143.89 МБ

В этой теме нет новых непрочитанных сообщений. Citizen Cain - Skies Darken [2012, Orchestral Progressive Rock, MP3]

PriZraK

0 | 1

168 МБ

В этой теме нет новых непрочитанных сообщений. Воскрешение Каина / Raising Cain [триллер, драма, криминал, 1992] BDRemux 1080p, Avo+Dvo+Sub

salma3

29 | 9

24.55 ГБ

В этой теме нет новых непрочитанных сообщений. The Mark of Cain - Songs Of The Third And Fifth [2012, Hard Rock, Alternative Rock, MP3]

PriZraK

0 | 1

96.38 МБ

В этой теме нет новых непрочитанных сообщений. Нарушение правил [Серия 4 из 4] (Леонид Мазор) [Мелодрама, 2015] SATRip

Dracon

148 | 13

2.29 ГБ

В этой теме нет новых непрочитанных сообщений. Воскрешение Каина / Raising Cain [Триллер, 1992] BDRip 1080p, Avo+Dvo+Sub

salma3

35 | 22

9.6 ГБ

В этой теме нет новых непрочитанных сообщений. Шеф [24 из 24] [Детектив, криминал, 2012] SATRip

iopuk60

0 | 2

13.02 ГБ


Начать новую тему Ответить на тему  [ 1 сообщение ] 




Для Мосгорсуда, Роскомнадзора и рекламодателей:: mosgorsud-torrent[собачка]yandex.ru