Торрент файл
скачать торрент магнет ссылка Добавлен: 23 окт 2013, 13:42
Размер: 4.8 ГБ
Сидеров: 37
Личеров: 5
Статус: (salma3)
Автор

СообщениеДобавлено: 23 окт 2013, 13:42 

Не в сети
Супермодератор
Аватара пользователя
Дата регистрации:
15 фев 2012, 16:44
Возраст: 27
Спасибо: 5139 / 2090
Сообщения: 17432
Рокеры / Strange Frequency

Год выхода: 2001
Жанр: комедия, ужасы, мистика, драма, триллер
Режиссер: Мэри Ламберт, Брайан Спайсер

В ролях: Эрик Робертс, Джадд Нельсон, Эрик Палладино, Брэнди Лэдфорд, Джон Тейлор, Холланд Тейлор, Кристофер Мастерсон, Дэнни Мастерсон, Киган Коннор Трейси, Тревор Уайт, Марла Соколофф, Адриан Холмс, Том Хитон, Мартин Камминс, Джейн Соерби, Кетт Тортон

О фильме:
4 мининовеллы в лучших традициях Баек из склепа и Сумеречной зоны - Адская дискотека, Моё поколение, Обслуживание номеров, Больше, чем чувство. Все фильмы объединяет тема рока или его фанатов.



Выпущено: США
Продолжительность:4 х 01:22:57
Озвучивание: Профессиональный (двухголосый, закадровый)

Файл
Качество: DVDRip
Формат файла: AVI
Видео кодек: XviD
Аудио кодек: MP3
Видео: 720x528 (1.36:1), 25 fps, XviD MPEG-4 ~1847 kbps avg, 0.19 bit/pixel
Аудио: 48 kHz, MPEG Layer 3, 2 ch, ~192.00 kbps avg






Общее
Полное имя : E:\Загруженные\Strange Frequency\strange.frequency.e01.buhtreker.org.ua.avi
Формат : AVI
Формат/Информация : Audio Video Interleave
Размер файла : 1,19 Гбайт
Продолжительность : 1 ч. 22 м.
Общий поток : 2050 Кбит/сек
Библиотека кодирования : VirtualDub build 32817/release

Видео
Идентификатор : 0
Формат : MPEG-4 Visual
Профиль формата : Advanced Simple@L5
Параметр BVOP формата : 2
Параметр QPel формата : Нет
Параметр GMC формата : Без точки перехода
Параметр матрицы формата : Default (MPEG)
Режим смешивания : Сжатый битовый поток
Идентификатор кодека : XVID
Идентификатор кодека/Подсказка : XviD
Продолжительность : 1 ч. 22 м.
Битрейт : 1848 Кбит/сек
Ширина : 720 пикселей
Высота : 528 пикселей
Соотношение сторон : 4:3
Частота кадров : 25,000 кадров/сек
Цветовое пространство : YUV
Субдискретизация насыщенности : 4:2:0
Битовая глубина : 8 бит
Тип развёртки : Прогрессивная
Метод сжатия : С потерями
Бит/(Пиксели*Кадры) : 0.194
Размер потока : 1,07 Гбайт (90%)
Библиотека кодирования : XviD 64

Аудио
Идентификатор : 1
Формат : MPEG Audio
Версия формата : Version 1
Профиль формата : Layer 3
Режим : Joint stereo
Идентификатор кодека : 55
Идентификатор кодека/Подсказка : MP3
Продолжительность : 1 ч. 22 м.
Вид битрейта : Постоянный
Битрейт : 192 Кбит/сек
Каналы : 2 канала
Частота : 48,0 КГц
Метод сжатия : С потерями
Размер потока : 114 Мбайт (9%)
Выравнивание : Разделение по промежуткам
Продолжительность промежутка : 40 мс. (1,00 видеокадр)
Время предзагрузки промежутка : 500 мс.


Рип от




реклама партнёра


Вернуться к началу
 Профиль Отправить личное сообщение  
 
   Похожие торренты   Автор   Торрент   Размер 
В этой теме нет новых непрочитанных сообщений. Фрейзер / Frasier / 9 сезон 1-24 серии из 24 [комедия, 2001-2002] DVDRip, Dvo [ViruseProject]

salma3

1 | 3

4.14 ГБ

В этой теме нет новых непрочитанных сообщений. Фрейзер / Frasier / 8 сезон 1-24 серии из 24 [комедия, 2000-2001] DVDRip, Mvo [ViruseProject]

salma3

0 | 2

4.36 ГБ

В этой теме нет новых непрочитанных сообщений. Волчонок / Teen Wolf / 3 сезон 1-24 серии из 24 [Мистика, драма, приключения, комедия,2013] WEB-DLRip, mvo

salma3

581 | 244

9.22 ГБ

В этой теме нет новых непрочитанных сообщений. Волчонок / Teen Wolf / 5 сезон 1-6 серии из 20 [Мистика, драма, приключения, комедия, 2015] HDTVRip, Mvo [RG.Paravozik]

salma3

27 | 31

2.88 ГБ

В этой теме нет новых непрочитанных сообщений. Волчонок / Teen Wolf / 4 сезон 1-12 серии из 12 [Мистика, драма, приключения, комедия, 2014] WEB-DL 720р, Mvo [VO-production]

salma3

148 | 63

13.52 ГБ

В этой теме нет новых непрочитанных сообщений. Радиоволна / Frequency / 1 сезон 1-7 серия из 13 [фантастика, фэнтези, триллер, 2016] WEB-DLRip, Mvo [Кравец]

salma3

0 | 0

2.66 ГБ

В этой теме нет новых непрочитанных сообщений. Проклятые / Blessed [ужасы, триллер, драма, мистика, 2004] DVDRip, Mvo

salma3

6 | 2

1.37 ГБ


Начать новую тему Ответить на тему  [ 1 сообщение ] 




Для Мосгорсуда, Роскомнадзора и рекламодателей:: mosgorsud-torrent[собачка]yandex.ru