Торрент файл
скачать торрент магнет ссылка Добавлен: 18 сен 2013, 15:47
Размер: 3.69 ГБ
Сидеров: 0
Личеров: 3
Автор

СообщениеДобавлено: 18 сен 2013, 15:47 

Не в сети
Зам. Админа
Аватара пользователя
Дата регистрации:
02 дек 2010, 12:39
Спасибо: 12460 / 214
Сообщения: 27968



Режиссер / Телекомпания: ТНТ
Русское название: Интерны
Год выпуска: 2013
Жанр: Комедия
Описание:
Главные герои ситкома – четыре интерна. Они все время попадают в идиотские ситуации, а их руководитель доктор Быков (Охлобыстин) с удовольствием за этим наблюдает. Доводить интернов до белого каления Быкову помогает друг доктор Купитман и мешает главврач больницы Анастасия Кисегач. Почти все сюжеты взяты из реальной врачебной практики. Роль доктора, который помимо своей воли становится руководителем практики у четырех оболтусов-интернов, играет Иван Охлобыстин. Священник, актер и сценарист. Учился во ВГИКе, работал режиссером на «Мосфильме», занимался журналистикой, политическим пиаром, сотрудничал с ведущими телеканалами. На его счету – более 30 ролей в кино и более 20 сценариев. Закончил семинарию. В 2001 году отец Иоанн был рукоположен в сан священника. Воспитывает шестерых детей. В ситкоме снимается впервые.
В ролях: Иван Охлобыстин, Вадим Демчог, Светлана Камынина, Александр Ильин мл., Кристина Асмус, Илья Глинников, Дмитрий Шаракоис
Режиссер: Максим Пежемский, Заур Болотаев
Продолжительность: Каждая серия х 00:25:00
Видеокодек: XviD
Битрейт видео: ~1475 kb/s
Размер кадра: 640 x 368 / 640 х 360
Качество видео: WEBRip
Аудиокодек: AC-3/MP3, 2ch.
Битрейт аудио: 192 kb/s
Формат : AVI
Формат/Информация : Audio Video Interleave
Размер файла : 277 Мбайт
Продолжительность : 23 м.
Общий поток : 1629 Кбит/сек
Программа кодирования : VirtualDubMod 1.5.10.3 | www.virtualdub-fr.org || (build 2550/release)
Библиотека кодирования : VirtualDubMod build 2550/release

Видео
Идентификатор : 0
Формат : MPEG-4 Visual
Профиль формата : Advanced Simple@L5
Параметр BVOP формата : 2
Параметр QPel формата : Нет
Параметр GMC формата : Без точки перехода
Параметр матрицы формата : Default (MPEG)
Идентификатор кодека : XVID
Идентификатор кодека/Подсказка : XviD
Продолжительность : 23 м.
Битрейт : 1492 Кбит/сек
Ширина : 640 пикселей
Высота : 360 пикселей
Соотношение сторон : 16:9
Частота кадров : 25,000 кадров/сек
Цветовое пространство : YUV
Субдискретизация насыщенности : 4:2:0
Битовая глубина : 8 бит
Тип развёртки : Прогрессивная
Метод сжатия : С потерями
Бит/(Пиксели*Кадры) : 0.259
Размер потока : 253 Мбайт (92%)
Библиотека кодирования : XviD 1.2.1 (UTC 2008-12-04)

Аудио
Идентификатор : 1
Формат : MPEG Audio
Версия формата : Version 1
Профиль формата : Layer 3
Режим : Joint stereo
Расширение режима : MS Stereo
Идентификатор кодека : 55
Идентификатор кодека/Подсказка : MP3
Продолжительность : 23 м.
Вид битрейта : Постоянный
Битрейт : 128 Кбит/сек
Каналы : 2 канала
Частота : 44,1 КГц
Метод сжатия : С потерями
Размер потока : 21,7 Мбайт (8%)
Выравнивание : Разделение по промежуткам
Продолжительность промежутка : 40 мс. (1,00 видеокадр)
Время предзагрузки промежутка : 500 мс.
Библиотека кодирования : LAME3.99r
Настройки программы : -m j -V 4 -q 2 -lowpass 17 -b 128

Формат : AVI
Формат/Информация : Audio Video Interleave
Размер файла : 300 Мбайт
Продолжительность : 24 м.
Общий поток : 1677 Кбит/сек
Программа кодирования : VirtualDubMod 1.5.10.3 (build 2550/release)
Библиотека кодирования : VirtualDubMod build 2550/release

Видео
Идентификатор : 0
Формат : MPEG-4 Visual
Профиль формата : Advanced Simple@L5
Параметр BVOP формата : 1
Параметр QPel формата : Нет
Параметр GMC формата : Без точки перехода
Параметр матрицы формата : Default (H.263)
Режим смешивания : Сжатый битовый поток
Идентификатор кодека : XVID
Идентификатор кодека/Подсказка : XviD
Продолжительность : 24 м.
Битрейт : 1475 Кбит/сек
Ширина : 640 пикселей
Высота : 368 пикселей
Соотношение сторон : 16:9
Частота кадров : 25,000 кадров/сек
Цветовое пространство : YUV
Субдискретизация насыщенности : 4:2:0
Битовая глубина : 8 бит
Тип развёртки : Прогрессивная
Метод сжатия : С потерями
Бит/(Пиксели*Кадры) : 0.251
Размер потока : 264 Мбайт (88%)
Библиотека кодирования : XviD 64

Аудио
Идентификатор : 1
Формат : AC-3
Формат/Информация : Audio Coding 3
Расширение режима : CM (complete main)
Идентификатор кодека : 2000
Продолжительность : 24 м.
Вид битрейта : Постоянный
Битрейт : 192 Кбит/сек
Каналы : 2 канала
Расположение каналов : Front: L R
Частота : 44,1 КГц
Битовая глубина : 16 бит
Метод сжатия : С потерями
Размер потока : 34,3 Мбайт (11%)
Выравнивание : Соединение по промежуткам
Продолжительность промежутка : 40 мс. (1,00 видеокадр)
Время предзагрузки промежутка : 522 мс.
Внимание! Раздача ведётся путём добавления новых серий; при каждом добавлении создаётся новый торрент.
Чтобы начать докачку новой серии, пользователям необходимо сделать следующее:
1. Остановить скачивание;
2. Удалить старый торрент у себя из клиента (старые серии удалять не надо);
3. Скачать новый торрент и запустить его у себя в клиенте вместо старого, при этом указать клиенту путь в старую папку куда и должно происходить скачивание новых серий. Ваш клиент при этом должен произвести хеширование (проверку) старой папки и будет докачивать только те серии, которых у вас ещё нет. Старые серии при этом не удаляются, а продолжают раздаваться! Eсли вы уже удалили старые серии, то предотвратить повторную закачку старых серий можно, отжав галочку в соответствующих местах при запуске нового торрента.





реклама партнёра


Вернуться к началу
 Профиль  
 
   Похожие торренты   Автор   Торрент   Размер 
В этой теме нет новых непрочитанных сообщений. Интерны [Сезон 11 серия 1-20 из 20] [Комедия, ситком, 2014] WEBRip

Dracon

8 | 8

6.14 ГБ

В этой теме нет новых непрочитанных сообщений. Интерны [10x1-23 из 23] [Комедия, ситком, 2014] WEBRip

Dracon

12 | 4

6.8 ГБ

В этой теме нет новых непрочитанных сообщений. Интерны [11х01-20 из 20] [Комедия, ситком, 2014] WEB-DL 720p

Dracon

502 | 345

13.24 ГБ

В этой теме нет новых непрочитанных сообщений. Управление гневом / Anger Management (Роб Шиллер) (Сезон 1-2, Серии 1-74 из ХХ) [2012-2014, Комедия, ситком, HDTVRip-AVC 720р] [DD5.1] [MVO] [LostFilm]

Враг Нароода

3 | 9

49.88 ГБ

В этой теме нет новых непрочитанных сообщений. Красные дубы / Red Oaks [1 сезон: 1-10 серии из 10] [Комедия, 2014] WEBRip [BaibaKo]

Dracon

54 | 25

3.31 ГБ

В этой теме нет новых непрочитанных сообщений. Друзья / Friends / 2 сезон: 1-24 серии из 24 [ситком, 1996] BDRip, Mvo [РТР]

salma3

24 | 10

5.85 ГБ

В этой теме нет новых непрочитанных сообщений. Друзья / Friends / 3 сезон: 1-25 серии из 25 [ситком, 1997] BDRip, Mvo [РТР]

salma3

24 | 11

6.16 ГБ


Начать новую тему Ответить на тему  [ 1 сообщение ] 




Для Мосгорсуда, Роскомнадзора и рекламодателей:: mosgorsud-torrent[собачка]yandex.ru