Торрент файл
скачать торрент магнет ссылка Добавлен: 17 сен 2013, 16:10
Размер: 4.79 ГБ
Сидеров: 18
Личеров: 11
Автор

СообщениеДобавлено: 17 сен 2013, 16:10 

Не в сети
Зам. Админа
Аватара пользователя
Дата регистрации:
02 дек 2010, 12:39
Спасибо: 12460 / 214
Сообщения: 27968
Год выпуска: 2013
Страна: Россия
Режиссер: Максим Пежемский, Заур Болотаев, Милан Килибарда,
Жанр: комедия, ситком
Продолжительность: 14x 00:23:00

В ролях: Иван Охлобыстин, Кристина Асмус, Яна Гурьянова, Вадим Демчог, Светлана Камынина, Александр Ильин мл., Илья Глинников, Дмитрий Шаракоис

Описание: Главные герои ситкома — четыре интерна. Они все время попадают в идиотские ситуации, а их руководитель доктор Быков с удовольствием за этим наблюдает. Доводить интернов до белого каления Быкову помогает друг доктор Купитман и мешает главврач больницы Анастасия Кисегач.



Перевод: Не требуется
Субтитры: отсутствуют

Формат: SATRip-AVC, MKV, H.264, AC3
Видео: 720x400 (16:9), 25,000 fps, MPEG4 AVC ~1800 kbps avg, 0.250 bit/pixel
Аудио: 48 kHz, AC3 Dolby Digital, 2/0 (L,R) ch, ~192 kbps avg


Внимание! Раздача ведётся путём добавления новых серий; при каждом добавлении создётся новый торрент. Чтобы начать докачку новой серии, пользователям необходимо сделать следующее:
(1) остановить скачивание,
(2) удалить старый торрент у себя из клиента (старые серии удалять не надо),
(3) скачать новый торрент и запустить его у себя в клиенте вместо старого, при этом указать клиенту путь в старую папку куда и должно происходить скачивание новых серий.

Ваш клиент при этом должен произвести хеширование (проверку) старой папки (если не производит сам - помогите ему сделать это), и будет докачивать только те серии которых у вас ещё нет. Старые серии при этом не удаляются, а продолжают раздаваться!

Eсли вы уже удалили старые серии, то предотвратить повторную закачку старых серий можно, отжав галочку в соответсвующих местах при запуске нового торрента. По возможности, желательно не удалять старые серии как можно дольше чтобы релизёр не столько продолжал раздавать старые серии, а смог сконцентрироваться на новых.


Общее
Уникальный идентификатор : 229615397947052144581469761117656561957 (0xACBE512AD5C9CE629BBD4675AF29B925)
Полное имя : F:\TREKER\TEMP\interny_s09_[tfile.ru]\interny_s09e01_(161)_[tfile.ru].mkv
Формат : Matroska
Версия формата : Version 2
Размер файла : 347 Мбайт
Продолжительность : 24 м.
Общий поток : 1994 Кбит/сек
Название фильма : interny_s09e01_(161)_[tfile.ru]
Дата кодирования : UTC 2013-09-02 16:04:11
Программа кодирования : mkvmerge v4.0.0 ('The Stars were mine') сборка от Jun 6 2010 16:18:42
Библиотека кодирования : libebml v1.0.0 + libmatroska v1.0.0

Видео
Идентификатор : 1
Формат : AVC
Формат/Информация : Advanced Video Codec
Профиль формата :
Параметр CABAC формата : Да
Параметр ReFrames формата : 8 кадров
Идентификатор кодека : V_MPEG4/ISO/AVC
Продолжительность : 24 м.
Битрейт : 1800 Кбит/сек
Ширина : 720 пикселей
Высота : 400 пикселей
Соотношение сторон : 16:9
Режим частоты кадров : Постоянный
Частота кадров : 25,000 кадров/сек
Цветовое пространство : YUV
Субдискретизация насыщенности : 4:2:0
Битовая глубина : 8 бит
Тип развёртки : Прогрессивная
Бит/(Пиксели*Кадры) : 0.250
Размер потока : 306 Мбайт (88%)
Заголовок : interny_s09e01_(161)_[tfile.ru]
Библиотека кодирования : x264 core 65 r999kMod cc51047
Настройки программы : cabac=1 / ref=8 / deblock=1:0:0 / analyse=0x3:0x133 / me=umh / subme=6 / psy_rd=1.0:0.0 / mixed_ref=1 / me_range=16 / chroma_me=1 / trellis=2 / 8x8dct=1 / cqm=0 / deadzone=21,11 / chroma_qp_offset=-2 / threads=4 / thread_queue=4 / nr=0 / decimate=1 / mbaff=0 / bframes=3 / b_pyramid=1 / b_adapt=1 / b_bias=0 / direct=3 / wpredb=1 / keyint=250 / keyint_min=25 / scenecut=40(pre) / rc=2pass / bitrate=1800 / ratetol=1.0 / qcomp=0.60 / qpmin=10 / qpmax=51 / qpstep=4 / cplxblur=20.0 / qblur=0.5 / ip_ratio=1.40 / pb_ratio=1.30 / aq=1:1.00
Язык : English
Default : Нет
Forced : Нет

Аудио
Идентификатор : 2
Формат : AC-3
Формат/Информация : Audio Coding 3
Расширение режима : CM (complete main)
Параметр Endianness формата : Big
Идентификатор кодека : A_AC3
Продолжительность : 24 м.
Вид битрейта : Постоянный
Битрейт : 192 Кбит/сек
Каналы : 2 канала
Расположение каналов : Front: L R
Частота : 48,0 КГц
Битовая глубина : 16 бит
Метод сжатия : С потерями
Размер потока : 33,4 Мбайт (10%)
Заголовок : 48 kHz, AC3 Dolby Digital, 2/0 (L,R) ch, ~192 kbps avg
Язык : Russian
Default : Нет
Forced : Нет

Меню
00:00:00.000 : en:
00:05:00.000 : en:
00:10:00.000 : en:
00:15:00.000 : en:
00:20:00.000 : en:









Запись со спутника Yamal 402 at 54.9°E
15.09.2013. добавлена 14 серия (временно.до выхода).




реклама партнёра


Вернуться к началу
 Профиль  
 
   Похожие торренты   Автор   Торрент   Размер 
В этой теме нет новых непрочитанных сообщений. Интерны [Сезон 11 серия 1-20 из 20] [Комедия, ситком, 2014] WEBRip

Dracon

8 | 8

6.14 ГБ

В этой теме нет новых непрочитанных сообщений. Интерны [10x1-23 из 23] [Комедия, ситком, 2014] WEBRip

Dracon

12 | 4

6.8 ГБ

В этой теме нет новых непрочитанных сообщений. Интерны [11х01-20 из 20] [Комедия, ситком, 2014] WEB-DL 720p

Dracon

502 | 345

13.24 ГБ

В этой теме нет новых непрочитанных сообщений. Непослушные родители / Still Standing / 3 сезон: 1-23 серии из 23 [ситком, 2003-2004] SATRip, Dub

salma3

15 | 5

4.59 ГБ

В этой теме нет новых непрочитанных сообщений. Непослушные родители / Still Standing / 4 сезон: 1-20 серии из 20 [ситком, 2005-2006] SATRip, Dub

salma3

16 | 6

3.8 ГБ

В этой теме нет новых непрочитанных сообщений. Непослушные родители / Still Standing / 2 сезон: 1-23 серии из 23 [ситком, 2003-2004] SATRip, Dub

salma3

10 | 5

4.7 ГБ

В этой теме нет новых непрочитанных сообщений. Непослушные родители / Still Standing / 1 сезон: 1-22 серии из 22 [ситком, 2002-2003] SATRip, Dub

salma3

9 | 5

5.33 ГБ


Начать новую тему Ответить на тему  [ 1 сообщение ] 




Для Мосгорсуда, Роскомнадзора и рекламодателей:: mosgorsud-torrent[собачка]yandex.ru