Торрент файл
скачать торрент магнет ссылка Добавлен: 27 сен 2013, 20:18
Размер: 24.96 ГБ
Сидеров: 0
Личеров: 3
Автор

СообщениеДобавлено: 14 авг 2013, 15:47 

Не в сети
2 Звезды
Аватара пользователя
Дата регистрации:
10 окт 2010, 20:23
Возраст: 61
Спасибо: 179 / 0
Сообщения: 323
Откуда: КРАСНОГОРСК
Декстер / Dexter



Год выпуска: 2013
Выпущено: США,
Жанр: триллер, драма, криминал, детектив
Продолжительность: 00:53:00
Сезон: 8
Серия: 1-12
Количество серий в сезоне: 12
Озвучка:Профессиональная многоголосая закадровая(LostFilm)
Субтитры: Русские




Режиссер: Маркос Сига, Тим Хантер, Кит Гордон

В ролях: Майкл С. Холл, Дженнифер Карпентер, Лорен Велес, Джеймс Римар, К.С. Ли, Дэвид Зайас, Джули Бенц, Кристина Робинсон, Престон Бэйли, Десмонд Харрингтон


Я - Декстер. Декстер Морган. Я работаю судмедэкспертом в полиции Майами. Я не понимаю любви, мне безразличен секс, и у меня нет чувств. А еще я серийный убийца. Мой отец был полицейским, и прекрасно обучил меня прятать улики. Обычным гражданам не стоит меня бояться, я убиваю только преступников, подонков, до которых почему-либо не смогла или не захотела добраться полиция. Я убиваю их, аккуратно распиливаю на части, и избавляюсь от трупов. Убийство для меня - творческий акт, искусство. Но однажды... В Майами появляется некто, равный мне. Даже превзошедший меня. Сумевший меня заинтересовать. Предложивший мне своего рода товарищеское состязание. Кто этот загадочный и неуловимый «икс»..?.

Качество : HDTVRip-AVC 1080p
Формат: MPEG-4
Видео кодек: H264
Видео: 5218Кбит/сек,1920х1080(16.9),в 25.000кадр/сек,AVC(Baseline@L4.0)(1Ref Frames)
Аудио кодек: AAC
Аудио Russian Dolby Digital 5.1:399Кбит/сек,44.1КГц,6каналов,AAC,(Version4)(LC)

Звуковая дорожка сделана путем наложения чистого голоса озвучивателей на центральный канал оригинальной дорожки. Качество идентично звуковой дорожке.



01 Прекрасный день (A Beautiful Day)
02 Нет худа без добра (Every Silver Lining)
03 Что гложет Декстера Моргана? (What's Eating Dexter Morgan?)
04 Рубцовая ткань (Scar Tissue)
05 Первый негритёнок (This Little Piggy)
06 Немного размышлений (A Little Reflection)
07 Форма одежды (Dress Code)
08 Мы уже приехали? (Are We There Yet?)
09 Создай свою музыку сам (Make Your Own Kind of Music) PROPER
10 Прощай, Майами! (Goodbye Miami)
11 Обезьянка в коробке (Monkey in a Box)

12 Ты помнишь чудовищ? (Remember the Monsters?)



Полное имя : D:\Новая папка (7)\DEXTER_2013_S08_RUS[LostFilm_TV]_DD5.1_x264_Nikolai.Baranov_HDTVRip-AVC_(1080p)\DEXTER_2013_S08E01_RUS[LostFilm_TV]_DD5.1_x264_Nikolai.Baranov_HDTVRip-AVC_(1080p).mp4
Формат : MPEG-4
Профиль формата : Base Media
Идентификатор кодека : isom
Размер файла : 2.10 GiB
Продолжительность : 53mn 33s
Режим общего битрейта : Variable
Общий поток : 5 621 Kbps
Название фильма : Dexter [Season 8] (2013) - Release for HDClub by vlaluk
Дата кодирования : UTC 2013-08-12 07:07:17
Дата пометки : UTC 2013-08-12 07:07:17
Программа кодирования : Lavf51.12.1

Video
Идентификатор : 1
Формат : AVC
Формат/Информация : Advanced Video Codec
Профиль формата : Baseline@L4.0
Параметр CABAC формата : No
Параметр ReFrames формата : 1 frame
Параметр GOP формата : M=1, N=12
Идентификатор кодека : avc1
Идентификатор кодека/Информация : Advanced Video Coding
Продолжительность : 53mn 33s
Вид битрейта : Variable
Битрейт : 5 218 Kbps
Максимальный битрейт : 7 500 Kbps
Ширина : 1 920 pixels
Высота : 1 080 pixels
Соотношение сторон : 16:9
Режим частоты кадров : Constant
Частота кадров : 25.000 fps
Частота кадров в оригинале : 24.000 fps
Цветовое пространство : YUV
Субдискретизация насыщенности : 4:2:0
Битовая глубина : 8 bits
Тип развёртки : Progressive
Бит/(Пиксели*Кадры) : 0.101
Размер потока : 1.95 GiB (93%)
Язык : English
Дата кодирования : UTC 2013-08-12 07:07:17
Дата пометки : UTC 2013-08-12 07:07:17

Audio
Идентификатор : 2
Формат : AAC
Формат/Информация : Advanced Audio Codec
Профиль формата : LC
Идентификатор кодека : 40
Продолжительность : 53mn 33s
Вид битрейта : Variable
Битрейт : 399 Kbps
Каналы : 6 channels
Расположение каналов : Front: L C R, Side: L R, LFE
Частота : 44.1 KHz
Метод сжатия : Lossy
Размер потока : 153 MiB (7%)
Язык : Russian
Дата кодирования : UTC 2013-08-12 07:07:17
Дата пометки : UTC 2013-08-12 07:07:17







[hr]


1. Открыть торрент
2. Снять галки с тех файлов торрента, которые мы не хотим закачивать. Оставляем только на нужных нам файлах (файле).
3. Нажать О.К.

В клиенте utorrent

Инструкция

1) Открыть торрент


2) Снять галки с тех файлов торрента, которые мы не хотим закачивать:

* либо вручную, снимая с каждого файла галку( скрин №1)
* либо, нажав кнопку "Снять метки (Select None)", сняв сразу со всех файлов(скрин №2)
№1

№2

Оставляем только на нужных нам файлах (файле).

3)Нажать О.К




Внимание!!! 27.09. 2013. РАЗДАЧА ОБНОВЛЕНА.ФИНАЛ СЕЗОНА.ОБНОВИТЕ ТОРЕНТ ФАЙЛ.ПРИЯТНОГО ПРОСМОТРА.



Релиз от: Nikolai.Baranov









реклама партнёра


Вернуться к началу
 Профиль Отправить личное сообщение  
 
   Похожие торренты   Автор   Торрент   Размер 
В этой теме нет новых непрочитанных сообщений. Декстер / Dexter [seasons 1-5, episode's 1-60] (Майкл Куэста, Тони Голдуин, Кейт Гордон, Маркос Сига, Тим Хантер) [Триллер, драма, криминал, детектив, 2006-2010] HDTVRip, Mvo

Dracon

2 | 3

24.22 ГБ

В этой теме нет новых непрочитанных сообщений. Последователи / The Following [S01-03] (Маркос Сига, Джошуа Батлер, Лиз Фридлендер) [триллер, драма, криминал, 2013-2015] WEB-DLRip, Mvo [LostFilm]

Dracon

327 | 207

21.32 ГБ

В этой теме нет новых непрочитанных сообщений. Дневники Вампира / The Vampire Diaries / 7 сезон 1-22 серии из 22 (Маркос Сига, Роб Харди, Дэвид Фон Энкен, Дж. Миллер Тобин) [2015, ужасы, фэнтези, триллер, драма, мелодрама, детектив, WEB-DLRip | LostFilm]

Dracon

316 | 265

8.29 ГБ

В этой теме нет новых непрочитанных сообщений. Дневники Вампира / The Vampire Diaries [06x01-05 из 22] (Маркос Сига, Роб Харди, Дэвид Фон Энкен) [2014, ужасы, фэнтези, триллер, драма, мелодрама, детектив, WEB-DLRip | LostFilm]

Nickolas3435

264 | 205

2.33 ГБ

В этой теме нет новых непрочитанных сообщений. Дневники Вампира / The Vampire Diaries [06x01-08 из 22] (Маркос Сига, Роб Харди, Дэвид Фон Энкен) [2014, ужасы, фэнтези, триллер, драма, мелодрама, детектив, WEB-DLRip | LostFilm]

Nickolas3435

277 | 296

3.54 ГБ

В этой теме нет новых непрочитанных сообщений. Во все тяжкие / Breaking Bad( Адам Бернштейн, Брайан Крэнстон) (Сезон 1-4, Серия 1-62 из 62) [2008-2013, Драма / Триллер / Детектив, Криминал, ВDRip-AVC 1080p ] [MVO] [LostFilm]

Nikolai.Baranov

12 | 22

174.56 ГБ

В этой теме нет новых непрочитанных сообщений. Дневники вампира / The Vampire Diaries [07х01-08] (Маркос Сига, Крис Грисмер) [2015, Драма, фантастика, WEB-DL 1080p | LostFilm]

Dracon

61 | 304

14.25 ГБ


Начать новую тему Ответить на тему  [ 1 сообщение ] 




Для Мосгорсуда, Роскомнадзора и рекламодателей:: mosgorsud-torrent[собачка]yandex.ru