Торрент файл
скачать торрент магнет ссылка Добавлен: 12 авг 2013, 09:29
Размер: 8.6 ГБ
Сидеров: 165
Личеров: 23
Автор

СообщениеДобавлено: 12 авг 2013, 09:29 

Не в сети
Зам. Админа
Аватара пользователя
Дата регистрации:
02 дек 2010, 12:39
Спасибо: 12561 / 214
Сообщения: 28070


Год выхода: 2012
Жанр: Детектив
Режиссер: Сергей Коротаев
В ролях: Евгений Славский, Александр Яцко, Сергей Никоненко, Борис Каморзин, Полина Филоненко, Артур Ваха, Ирина Патракова, Кристина Кузьмина, Филипп Азаров, Наташа Варфоломеева, Денис Пьянов, Зоя Буряк, Сергей Лосев, Михаил Трясоруков, Светлана Киреева, Дмитрий Быковский-Ромашов, Сергей Кошонин, Лиза Буркова, Александр Саюталин, Баймурат Аллабериев, Ксения Арикова, Максим Меркулов, Вячеслав Коробицин, Данила Шевченко, Рина Гришина, Антон Мамин, Леонид Алимов, Татьяна Аптикеева, Михаил Разинкин, Станислав Осколков, Валерий Саломахин, Леонид Ворон, Борис Малевский, Мария Кузнецова, Марианна Коробейникова, Сергей Овсянников, Яна Кошкина, Елена Купрашевич, Сергей Носиков, Максим Митяшин, Татьяна Василькова, Станислав Ткаченко, Вячеслав Карпов

О фильме:
Когда сотрудники Следственного Комитета при Окружной прокуратуре заходят в тупик, они вынуждены обращаться за помощью к Хмурову — бывшему начальнику общеуголовного отдела СК, «сосланному» в архив разбирать бумажки. Идти на поклон к Хмурову нынешнему руководству отдела очень не хочется, но деваться некуда: Хмуров — следователь от Бога. Большинство дел, к расследованию которых привлекают Хмурова, — так называемые «отложенные преступления», когда необходимо не просто раскрыть уже совершенное преступление, но предотвратить следующий шаг преступника. Когда существует угроза очередной трагедии, и счетчик неумолимо тикает…
Используя свою уникальную память и аналитический талант, ему удается раскрывать такие дела, которые любой другой неизбежно превратил бы в глухой висяк. Есть и еще одна особенность метода Хмурова: изучая улики, слушая показания свидетелей, он рассеянно зарисовывает все, что приходит ему в голову, часто делает шаржированные портреты жертв и подозреваемых. Затем изучает свои рисунки, исследует собственные ассоциации, которые наталкивают его на одно из множества известных ему преступлений…
Страна: Россия
Студия: «Платформа: Кино»
Продолжительность: 16x ~00:44:00
Перевод: Не требуется
Семпл

Качество: SATRip
Видео кодек: XviD
Видео: 720x400 (1.80:1), 25 fps, XviD build 50 ~1504 kbps avg, 0.21 bit/pixel
Аудио: 48 kHz, MPEG Layer 3, 2 ch, ~192.00 kbps avg
General
Complete name : V:ftp4VideosKhmurov.XviD.2013.SATRip.Files-xKhmurov.01.seriya.XviD.2013.SATRip.Files-x.avi
Format : AVI
Format/Info : Audio Video Interleave
File size : 550 MiB
Duration : 45mn 5s
Overall bit rate : 1 706 Kbps
Writing application : VirtualDubMod 1.5.10.3 | http://www.virtualdub-fr.org || (build 2550/release)
Writing library : VirtualDubMod build 2550/release

Video
ID : 0
Format : MPEG-4 Visual
Format profile : Advanced Simple@L5
Format settings, BVOP : 1
Format settings, QPel : No
Format settings, GMC : No warppoints
Format settings, Matrix : Default (H.263)
Codec ID : XVID
Codec ID/Hint : XviD
Duration : 45mn 5s
Bit rate : 1 504 Kbps
Width : 720 pixels
Height : 400 pixels
Display aspect ratio : 16:9
Frame rate : 25.000 fps
Color space : YUV
Chroma subsampling : 4:2:0
Bit depth : 8 bits
Scan type : Progressive
Compression mode : Lossy
Bits/(Pixel*Frame) : 0.209
Stream size : 485 MiB (88%)
Writing library : XviD 1.2.1 (UTC 2008-12-04)

Audio
ID : 1
Format : MPEG Audio
Format version : Version 1
Format profile : Layer 3
Codec ID : 55
Codec ID/Hint : MP3
Duration : 45mn 5s
Bit rate mode : Constant
Bit rate : 192 Kbps
Channel(s) : 2 channels
Sampling rate : 48.0 KHz
Compression mode : Lossy
Stream size : 61.9 MiB (11%)
Alignment : Aligned on interleaves
Interleave, duration : 40 ms (1.00 video frame)
Interleave, preload duration : 504 ms
Writing library : LAME3.98r
Encoding settings : -m s -V 4 -q 2 -lowpass 18.6 -b 192




Релиз группа




реклама партнёра


Вернуться к началу
 Профиль  
 
   Похожие торренты   Автор   Торрент   Размер 
В этой теме нет новых непрочитанных сообщений. Шеф [24 из 24] [Детектив, криминал, 2012] SATRip

iopuk60

0 | 2

13.02 ГБ

В этой теме нет новых непрочитанных сообщений. Телохранитель 4 [16 из 16] [Детектив, криминал, 2012] SATRip

iopuk60

0 | 3

8.68 ГБ

В этой теме нет новых непрочитанных сообщений. Дознаватель [24 из 24] [Детектив, криминал, 2012] SATRip

iopuk60

0 | 3

13.03 ГБ

В этой теме нет новых непрочитанных сообщений. Медвежья хватка [01-04 из 04] [Детектив, 2012] SATRip

Dracon

511 | 31

2.15 ГБ

В этой теме нет новых непрочитанных сообщений. По горячим следам-2 [16 из 16] [Детектив,криминал,2012] SATRip

iopuk60

1 | 124

8.67 ГБ

В этой теме нет новых непрочитанных сообщений. Порох и дробь [24 из 24 ] [Детектив, криминал,2012] SATRip

iopuk60

0 | 2

16.43 ГБ

В этой теме нет новых непрочитанных сообщений. Брат за брата 2 [01-24 из 24] [Детектив, криминал, 2012] SATRip

iopuk60

2 | 5

13.01 ГБ


Начать новую тему Ответить на тему  [ 1 сообщение ] 




Для Мосгорсуда, Роскомнадзора и рекламодателей:: mosgorsud-torrent[собачка]yandex.ru