Торрент файл
скачать торрент магнет ссылка Добавлен: 30 июл 2013, 13:34
Размер: 11.73 ГБ
Сидеров: 156
Личеров: 49
Автор

СообщениеДобавлено: 30 июл 2013, 13:34 

В сети
Супермодератор
Аватара пользователя
Дата регистрации:
15 фев 2012, 16:44
Возраст: 27
Спасибо: 5134 / 2089
Сообщения: 17385

Год выпуска: 2012
Страна: США
Жанр: драма
Продолжительность: ~42 мин
Перевод: профессиональный ]многоголосый закадровый\ [FOX Life]
Режиссёр: Шонда Раймс

В ролях: Эллен Помпео (Мередит Грей), Сандра О (Кристина Янг), Джастин Чэмберс (Алекс Карев), Патрик Дэмпси (Дерек Шепард), Чандра Уилсон (Миранда Бейли), Сара Рамирез (Келли Торрес), Эрик Дэйн (Марк Слоан), Джеймс Пикенс мл. (Ричард Вебер), Кайлер Ли (Лекси Грей), Кевин МакКид (Оуэн Хант), Джессика Кэпшоу (Аризона Роббинс), Ким Рэйвер (Тэдди Альтман), Джесси Уильямс (Джексон Эйвери), Сара Дрю (Эйприл Кэпнер).

При участии: Скотт Фоули (Генри Бартон), Лоретта Дивайн (Адель Вебер), Джейсон Уинстон Джордж (Бен Уорен), Дилан Бруно (Грифитц Льюис).

Описание: Продолжение знаменитой медицинской драмы о работе и личных отношениях хирургов сиэтлской больницы. Каждый день наполнен болью и счастьем, ссорами и примирениями, сложными дилеммами и необходимостью принять моментальное решение от которого зависит жизнь человека. В центре сюжета хирург - Мередит и её коллеги, такие же начинающие врачи, как она. Хирурги оперируют и влюбляются, заводят истории болезни и служебные романы, хранят свои врачебные тайны, борются с осложнениями у пациентов и в собственной личной жизни.
В Анатомии Грей великолепный сюжет, замечательный саундтрек, хороший юмор и интересные высказывания в начале и конце серий.





Сэмпл

Качество: WEB-DLRip
Формат: AVI
Видео кодек: XviD
Аудио кодек: MP3
Видео: 720x400 (16:9); 1351 Kbps; 23,976 fps; 0,196 bpp
Аудио 1: MPEG-1 Audio layer 3; 48 kHz; 128 Kbps; CBR; 2 ch [FOX Life]
Аудио 2: MPEG-1 Audio layer 3; 48 kHz; 128 Kbps; CBR; 2 ch [оригинал]
Going Going Gone
Remember the Time
Love the One You're With
I Saw Her Standing There
Beautiful Doom
Second Opinion
I Was Made For Lovin' You
Love Turns You Upside Down
Run, Baby, Run
Things We Said Today
The End Is the Beginning Is the End
Walking on a Dream
Bad Blood
The Face of Change
Hard Bargain
This Is Why We Fight
Transplant Wasteland
Idle Hands
Can't Fight This Feeling
She's Killing Me
General
Complete name : D:ВидеоCериалыАнатомия страстиFOX LifeGreys.Anatomy.s09e01.WEB-DLRip.rus.eng.avi
Format : AVI
Format/Info : Audio Video Interleave
File size : 501 MiB
Duration : 43mn 10s
Overall bit rate : 1 622 Kbps
Writing application : VirtualDubMod 1.5.10.2 (build 2540/release)
Writing library : VirtualDubMod build 2540/release

Video
ID : 0
Format : MPEG-4 Visual
Format profile : Advanced Simple@L5
Format settings, BVOP : 2
Format settings, QPel : No
Format settings, GMC : No warppoints
Format settings, Matrix : Default (H.263)
Codec ID : XVID
Codec ID/Hint : XviD
Duration : 43mn 10s
Bit rate : 1 352 Kbps
Width : 720 pixels
Height : 400 pixels
Display aspect ratio : 16:9
Frame rate : 23.976 fps
Color space : YUV
Chroma subsampling : 4:2:0
Bit depth : 8 bits
Scan type : Progressive
Compression mode : Lossy
Bits/(Pixel*Frame) : 0.196
Stream size : 417 MiB (83%)
Writing library : XviD 1.2.1 (UTC 2008-12-04)

Audio #1
ID : 1
Format : MPEG Audio
Format version : Version 1
Format profile : Layer 3
Codec ID : 55
Codec ID/Hint : MP3
Duration : 43mn 10s
Bit rate mode : Constant
Bit rate : 128 Kbps
Channel(s) : 2 channels
Sampling rate : 48.0 KHz
Compression mode : Lossy
Stream size : 39.5 MiB (8%)
Alignment : Aligned on interleaves
Interleave, duration : 42 ms (1.00 video frame)
Interleave, preload duration : 504 ms
Writing library : LAME3.98r
Encoding settings : -m s -V 4 -q 2 -lowpass 17 -b 128

Audio #2
ID : 2
Format : MPEG Audio
Format version : Version 1
Format profile : Layer 3
Codec ID : 55
Codec ID/Hint : MP3
Duration : 43mn 10s
Bit rate mode : Constant
Bit rate : 128 Kbps
Channel(s) : 2 channels
Sampling rate : 48.0 KHz
Compression mode : Lossy
Stream size : 39.5 MiB (8%)
Alignment : Aligned on interleaves
Interleave, duration : 42 ms (1.00 video frame)
Interleave, preload duration : 504 ms
Writing library : LAME3.98r
Encoding settings : -m s -V 4 -q 2 -lowpass 17 -b 128




реклама партнёра


Вернуться к началу
 Профиль Отправить личное сообщение  
 
   Похожие торренты   Автор   Торрент   Размер 
В этой теме нет новых непрочитанных сообщений. Анатомия страсти (Анатомия Грей) / Grey's Anatomy [13x01-06 из 24] (Драма, криминал, боевик, триллер, детектив, 2016) HDTV 720p | Jetvis Studio

marya111

0 | 0

6 ГБ

В этой теме нет новых непрочитанных сообщений. Анатомия страсти (Анатомия Грей) / Grey's Anatomy [13x01-08 из 24] (Драма, криминал, боевик, триллер, детектив, 2016) HDTV 720p | Jetvis Studio

marya111

43 | 75

8.04 ГБ

В этой теме нет новых непрочитанных сообщений. Анатомия страсти / Grey's Anatomy [12x01-06 из 24] (Роб Корн) [2015, Драма, мелодрама, медицина, WEB-DLRip | BaibaKo]

Nickolas3435

81 | 135

3.42 ГБ

В этой теме нет новых непрочитанных сообщений. Анатомия страсти / Grey's Anatomy [12x01-07 из 24] (Роб Корн) [2015, Драма, мелодрама, медицина, WEB-DLRip | BaibaKo]

Dracon

125 | 214

3.99 ГБ

В этой теме нет новых непрочитанных сообщений. Анатомия страсти / Grey's Anatomy / 12 сезон 1-24 серии из 24 (Роб Корн) [2015, Драма, мелодрама, медицина, WEB-DLRip | BaibaKo]

Dracon

63 | 107

13.49 ГБ

В этой теме нет новых непрочитанных сообщений. Анатомия Грей / Grey's Anatomy [13x01-06 из 24] (Драма, мелодрама, медицина, 2016) HDTVRip | IdeaFilm

marya111

0 | 0

3.47 ГБ

В этой теме нет новых непрочитанных сообщений. Анатомия страсти / Grey's Anatomy [13x01 из 24] [Драма, мелодрама, медицина, 2016] HDTVRip, Mvo [IdeFilm]

salma3

37 | 5

565.66 МБ


Начать новую тему Ответить на тему  [ 1 сообщение ] 




Для Мосгорсуда, Роскомнадзора и рекламодателей:: mosgorsud-torrent[собачка]yandex.ru