Торрент файл
скачать торрент магнет ссылка Добавлен: 15 июл 2013, 00:00
Размер: 14.31 ГБ
Сидеров: 112
Личеров: 39
Автор

СообщениеДобавлено: 15 июл 2013, 00:00 

Не в сети
Супермодератор
Аватара пользователя
Дата регистрации:
15 фев 2012, 16:44
Возраст: 27
Спасибо: 5139 / 2089
Сообщения: 17423

Год выпуска: 2012
Производство: Россия / Город
Жанр: криминал, детектив
Продолжительность: 00:43:00 / серия
Режиссёр: Григорий Любомиров, Александр Кулямин

В ролях: Максим Щеголев, Максим Дрозд, Валерий Николаев, Надежда Бахтина, Игорь Верник, Геннадий Шныптев, Дмитрий Митюрич, Владимир Лысенко, Иннокентий Тарабара, Елена Олькина...

Описание: Трудно жить с человеком, у которого чрезвычайно сложный характер, которого никто не может сломать и ущемить, который ни перед каким предлогом не уступает и не идет даже на самые небольшие уступки. В народе подобных людей называют волками. Однако, как часто случается, их никто не окружает особо, поскольку они одинокие волки. Это история о сильном, мужественном и временами сложном характере.







Качество: SATRip (DVB)
Формат: AVI

Видео: 720x400 (16:9), 25.000 fps, XViD ~ 1794 kbps avg, 0.249 bit/pixel
Аудио: 48 kHz, АС3 2 ch, 192 kbps, русский

Раздача от:
Общее
Полное имя : Odinokiy.volk.2012.O.SATRip_[Youtracker]_by_avproh\01.avi
Формат : AVI
Формат/Информация : Audio Video Interleave
Размер файла : 605 Мбайт
Продолжительность : 42 м.
Общий поток : 1996 Кбит/сек
Программа кодирования : VirtualDubModRus 1.5.10.2 (build 2542/release)
Библиотека кодирования : VirtualDubMod build 2542/release

Видео
Идентификатор : 0
Формат : MPEG-4 Visual
Профиль формата : Advanced Simple@L5
Параметр BVOP формата : 1
Параметр QPel формата : Нет
Параметр GMC формата : Без точки перехода
Параметр матрицы формата : Выборочная
Идентификатор кодека : XVID
Идентификатор кодека/Подсказка : XviD
Продолжительность : 42 м.
Битрейт : 1794 Кбит/сек
Ширина : 720 пикселей
Высота : 400 пикселей
Соотношение сторон : 16:9
Частота кадров : 25,000 кадров/сек
Цветовое пространство : YUV
Субдискретизация насыщенности : 4:2:0
Битовая глубина : 8 бит
Тип развёртки : Прогрессивная
Метод сжатия : С потерями
Бит/(Пиксели*Кадры) : 0.249
Размер потока : 544 Мбайт (90%)
Библиотека кодирования : XviD 65

Аудио
Идентификатор : 1
Формат : AC-3
Формат/Информация : Audio Coding 3
Расширение режима : CM (complete main)
Параметр Endianness формата : Big
Идентификатор кодека : 2000
Продолжительность : 42 м.
Вид битрейта : Постоянный
Битрейт : 192 Кбит/сек
Каналы : 2 канала
Расположение каналов : Front: L R
Частота : 48,0 КГц
Битовая глубина : 16 бит
Метод сжатия : С потерями
Размер потока : 58,2 Мбайт (10%)
Выравнивание : Разделение по промежуткам
Продолжительность промежутка : 40 мс. (1,00 видеокадр)
Время предзагрузки промежутка : 500 мс.





реклама партнёра


Вернуться к началу
 Профиль Отправить личное сообщение  
 
   Похожие торренты   Автор   Торрент   Размер 
В этой теме нет новых непрочитанных сообщений. Балабол / Одинокий волк Саня [16 из 16] [детектив, 2013] HDTVRip

iopuk60

4 | 34

8.68 ГБ

В этой теме нет новых непрочитанных сообщений. Одинокий волк МакКуэйд / Lone Wolf McQuade [боевик, драма, криминал, 1983] BDRip 720р, Mvo+Sub

salma3

21 | 6

7.99 ГБ

В этой теме нет новых непрочитанных сообщений. Одинокий волк МакКуэйд / Lone Wolf McQuade [Боевик, 1983] BDRip 1080p, Mvo

salma3

67 | 50

12.06 ГБ

В этой теме нет новых непрочитанных сообщений. Шеф [24 из 24] [Детектив, криминал, 2012] SATRip

iopuk60

0 | 2

13.02 ГБ

В этой теме нет новых непрочитанных сообщений. Телохранитель 4 [16 из 16] [Детектив, криминал, 2012] SATRip

iopuk60

0 | 2

8.68 ГБ

В этой теме нет новых непрочитанных сообщений. Дознаватель [24 из 24] [Детектив, криминал, 2012] SATRip

iopuk60

0 | 2

13.03 ГБ

В этой теме нет новых непрочитанных сообщений. Воздушный волк / Небесный волк / Airwolf [S01-03] [Боевик, приключения, 1984-1986] BDRip, Mvo

salma3

17 | 26

40.42 ГБ


Начать новую тему Ответить на тему  [ 1 сообщение ] 




Для Мосгорсуда, Роскомнадзора и рекламодателей:: mosgorsud-torrent[собачка]yandex.ru