Торрент файл
скачать торрент магнет ссылка Добавлен: 15 июл 2013, 00:00
Размер: 14.31 ГБ
Сидеров: 112
Личеров: 39
Автор

СообщениеДобавлено: 15 июл 2013, 00:00 

В сети
Супермодератор
Аватара пользователя
Дата регистрации:
15 фев 2012, 16:44
Возраст: 28
Спасибо: 6566 / 2130
Сообщения: 43739

Год выпуска: 2012
Производство: Россия / Город
Жанр: криминал, детектив
Продолжительность: 00:43:00 / серия
Режиссёр: Григорий Любомиров, Александр Кулямин

В ролях: Максим Щеголев, Максим Дрозд, Валерий Николаев, Надежда Бахтина, Игорь Верник, Геннадий Шныптев, Дмитрий Митюрич, Владимир Лысенко, Иннокентий Тарабара, Елена Олькина...

Описание: Трудно жить с человеком, у которого чрезвычайно сложный характер, которого никто не может сломать и ущемить, который ни перед каким предлогом не уступает и не идет даже на самые небольшие уступки. В народе подобных людей называют волками. Однако, как часто случается, их никто не окружает особо, поскольку они одинокие волки. Это история о сильном, мужественном и временами сложном характере.







Качество: SATRip (DVB)
Формат: AVI

Видео: 720x400 (16:9), 25.000 fps, XViD ~ 1794 kbps avg, 0.249 bit/pixel
Аудио: 48 kHz, АС3 2 ch, 192 kbps, русский

Раздача от:
Общее
Полное имя : Odinokiy.volk.2012.O.SATRip_[Youtracker]_by_avproh\01.avi
Формат : AVI
Формат/Информация : Audio Video Interleave
Размер файла : 605 Мбайт
Продолжительность : 42 м.
Общий поток : 1996 Кбит/сек
Программа кодирования : VirtualDubModRus 1.5.10.2 (build 2542/release)
Библиотека кодирования : VirtualDubMod build 2542/release

Видео
Идентификатор : 0
Формат : MPEG-4 Visual
Профиль формата : Advanced Simple@L5
Параметр BVOP формата : 1
Параметр QPel формата : Нет
Параметр GMC формата : Без точки перехода
Параметр матрицы формата : Выборочная
Идентификатор кодека : XVID
Идентификатор кодека/Подсказка : XviD
Продолжительность : 42 м.
Битрейт : 1794 Кбит/сек
Ширина : 720 пикселей
Высота : 400 пикселей
Соотношение сторон : 16:9
Частота кадров : 25,000 кадров/сек
Цветовое пространство : YUV
Субдискретизация насыщенности : 4:2:0
Битовая глубина : 8 бит
Тип развёртки : Прогрессивная
Метод сжатия : С потерями
Бит/(Пиксели*Кадры) : 0.249
Размер потока : 544 Мбайт (90%)
Библиотека кодирования : XviD 65

Аудио
Идентификатор : 1
Формат : AC-3
Формат/Информация : Audio Coding 3
Расширение режима : CM (complete main)
Параметр Endianness формата : Big
Идентификатор кодека : 2000
Продолжительность : 42 м.
Вид битрейта : Постоянный
Битрейт : 192 Кбит/сек
Каналы : 2 канала
Расположение каналов : Front: L R
Частота : 48,0 КГц
Битовая глубина : 16 бит
Метод сжатия : С потерями
Размер потока : 58,2 Мбайт (10%)
Выравнивание : Разделение по промежуткам
Продолжительность промежутка : 40 мс. (1,00 видеокадр)
Время предзагрузки промежутка : 500 мс.





реклама партнёра


Вернуться к началу
 Профиль Отправить личное сообщение  
 
   Похожие торренты   Автор   Торрент   Размер 
В этой теме нет новых непрочитанных сообщений. Одинокий волк МакКуэйд / Lone Wolf McQuade [боевик, драма, криминал, 1983] BDRip 720р, Mvo+Sub

salma3

21 | 7

7.99 ГБ

В этой теме нет новых непрочитанных сообщений. Одинокий волк МакКуэйд / Lone Wolf McQuade [Боевик, 1983] BDRip 1080p, Mvo

salma3

67 | 50

12.06 ГБ

В этой теме нет новых непрочитанных сообщений. Воздушный волк / Небесный волк / Airwolf [S01-03] [Боевик, приключения, 1984-1986] BDRip, Mvo

salma3

17 | 26

40.42 ГБ

В этой теме нет новых непрочитанных сообщений. Воздушный волк / Небесный волк / Airwolf [S01-03] [Боевик, приключения, 1984-1986] BDRip 720p, Mvo

salma3

4 | 12

124.54 ГБ

В этой теме нет новых непрочитанных сообщений. Полет аистов / Flight of the Storks [боевик, криминал, детектив, 2012] SATRip, Mvo

salma3

16 | 1

1.56 ГБ

В этой теме нет новых непрочитанных сообщений. Волк-одиночка / Cry Wolf [Триллер, слэшер, детектив, 2005] Blu-Ray Remux 1080p, Dub+Sub

salma3

49 | 14

15.59 ГБ

В этой теме нет новых непрочитанных сообщений. Человек человеку волк / Dog Eat Dog [триллер, драма, криминал, 2016] WEB-DLRip, Mvo

salma3

1979 | 451

1.36 ГБ


Начать новую тему Ответить на тему  [ 1 сообщение ] 




Для Мосгорсуда, Роскомнадзора и рекламодателей:: mosgorsud-torrent[собачка]yandex.ru