Торрент файл
скачать торрент магнет ссылка Добавлен: 04 июл 2013, 13:23
Размер: 4.6 ГБ
Сидеров: 15
Личеров: 4
Статус: (salma3)
Автор

СообщениеДобавлено: 04 июл 2013, 13:23 

В сети
Супермодератор
Аватара пользователя
Дата регистрации:
15 фев 2012, 16:44
Возраст: 27
Спасибо: 5121 / 2089
Сообщения: 17304

Шестнадцатый отдел ФБР / C-16: FBI

Год выхода: 1997-1998
Жанр: Боевик
Режиссер: Майкл М. Робин
В ролях: Эрик Робертс, Зэк Гренье, Кристин Туччи, Энджи Хэрмон, Моррис Честнат, Д.Б. Суини, Гленн Моршауэр, Майкл Кавана, Джон Вентимилья, Лаура Диаз

О фильме:
Региональное отделение ФБР в Лос-Анджелесе. Самый знаменитый отдел особо тяжких преступлений на последнем этаже небоскреба. Гиблые, на первый взгляд, дела, и команда лучших в своем деле спецагентов, которая расследует их под руководством Джона Олански.



Страна: США, Brillstein-Grey Entertainment, Buena Vista Television
Продолжительность: 13 х ~ 00:43:00
Перевод: Профессиональный [двухголосый]

Файл
Качество: VHSRip
Формат файла: AVI
Видео: 512x384 (1.33:1), 25 fps, XviD ~ 980 kbps avg, 0.20 bit/pixel
Аудио: 48 kHz, 2.0 ~ 192.00 kbps avg



Семпл

Общее
Полное имя : D:1АААC-16.FBI.(1997)C-16.FBI.1x01.Pilot.Part.1.VHSRip.Rus(ORT).avi
Формат : AVI
Формат/Информация : Audio Video Interleave
Размер файла : 363 Мбайт
Продолжительность : 42 м.
Общий поток : 1183 Кбит/сек
Программа кодирования : VirtualDubModRus 1.5.10.2 (build 2542/release)
Библиотека кодирования : VirtualDubMod build 2542/release

Видео
Идентификатор : 0
Формат : MPEG-4 Visual
Профиль формата : Advanced Simple@L5
Параметр BVOP формата : 2
Параметр QPel формата : Нет
Параметр GMC формата : Без точки перехода
Параметр матрицы формата : Default (H.263)
Идентификатор кодека : XVID
Идентификатор кодека/Подсказка : XviD
Продолжительность : 42 м.
Битрейт : 981 Кбит/сек
Ширина : 512 пикселей
Высота : 384 пикселя
Соотношение сторон : 4:3
Частота кадров : 25,000 кадров/сек
Цветовое пространство : YUV
Субдискретизация насыщенности : 4:2:0
Битовая глубина : 8 бит
Тип развёртки : Прогрессивная
Метод сжатия : С потерями
Бит/(Пиксели*Кадры) : 0.200
Размер потока : 301 Мбайт (83%)
Библиотека кодирования : XviD 1.2.0.dev47 (UTC 2006-11-01)

Аудио
Идентификатор : 1
Формат : MPEG Audio
Версия формата : Version 1
Профиль формата : Layer 3
Режим : Joint stereo
Идентификатор кодека : 55
Идентификатор кодека/Подсказка : MP3
Продолжительность : 42 м.
Вид битрейта : Постоянный
Битрейт : 192 Кбит/сек
Каналы : 2 канала
Частота : 48,0 КГц
Метод сжатия : С потерями
Размер потока : 59,0 Мбайт (16%)
Выравнивание : Соединение по промежуткам
Продолжительность промежутка : 40 мс. (1,00 видеокадр)
Время предзагрузки промежутка : 504 мс.




реклама партнёра


Вернуться к началу
 Профиль Отправить личное сообщение  
 
   Похожие торренты   Автор   Торрент   Размер 
В этой теме нет новых непрочитанных сообщений. Детонатор / Pressure point [Боевик, 1997] VHSRip, Avo

salma3

11 | 3

1.46 ГБ

В этой теме нет новых непрочитанных сообщений. Изгой / The Outsider [фантастика, боевик, 1998] VHSRip, Avo

salma3

21 | 2

700.04 МБ

В этой теме нет новых непрочитанных сообщений. Властелин / Sikandar Sadak Ka [боевик, 1998] VHSRip, Avo

salma3

3 | 5

1.46 ГБ

В этой теме нет новых непрочитанных сообщений. Сексуальное намерение / Сексуальная цель / Sexual Intent [Боевик, триллер, драма, 1997] VHSRip, Avo

salma3

67 | 8

747.53 МБ

В этой теме нет новых непрочитанных сообщений. Крушение / Sub Down [катастрофа, драма, 1997] VHSRip, Avo

salma3

18 | 7

1.45 ГБ

В этой теме нет новых непрочитанных сообщений. Элементы / Into My Heart [драма, 1998] VHSRip, Avo

salma3

6 | 1

1.43 ГБ

В этой теме нет новых непрочитанных сообщений. Старая похоть [1998 г., Amateur, VHSRip 480p]

friizze

9 | 3

255.01 МБ


Начать новую тему Ответить на тему  [ 1 сообщение ] 




Для Мосгорсуда, Роскомнадзора и рекламодателей:: mosgorsud-torrent[собачка]yandex.ru