Торрент файл
скачать торрент магнет ссылка Добавлен: 03 июл 2013, 23:01
Размер: 5.02 ГБ
Сидеров: 18
Личеров: 4
Статус: (salma3)
Автор

СообщениеДобавлено: 03 июл 2013, 23:01 

Не в сети
Супермодератор
Аватара пользователя
Дата регистрации:
15 фев 2012, 16:44
Возраст: 28
Спасибо: 6563 / 2129
Сообщения: 43556

Секретный агент / Secret Agent Man

Год выхода: 2000
Жанр: боевик
Режиссер: Джефри Леви

В ролях: Костас Мэндилор, Дондре Уитфилд, Дина Мейер, Пол Гилфойл, Мусетта Вандер, Фрида Бетрани, Кэрри Флеминг, Хсу Гарсиа, Грейс Пак, Дэррил Квон

О фильме:
Монах — участник команды секретных агентов. Он очень любвеобильный человек, который просто обожает коллекционировать женское внимание. Но однажды встреча Монаха с очередной подругой была прервана его прежней любовницей — Примой, которая когда-то дезертировала из агентской сети и переметнулась на вражескую сторону. Теперь же она хочет вернуться. Но не все так просто: как только Монах соглашается ей помочь, на горизонте появляется злостный нарушитель спокойствия — Варгас. Он угрожает расправиться с миром при помощи своего новейшего изобретения.




Страна: США
Продолжительность: 12 х ~ 00:43:00
Перевод: Профессиональный [двухголосый]

Файл
Качество: DVDRip
Формат файла: AVI
Видео кодек: DivX
Аудио кодек: AC3
Видео: 672x512 (1.31:1), 25 fps, DivX ~1018 kbps avg, 0.12 bit/pixel
Аудио: #1: 48 kHz, 2.0 ~192.00 kbps avg (RUS)
Аудио: #2: 48 kHz, 2.0 ~192.00 kbps avg (ENG)



Общее
Полное имя : D:1АААSecret.Agent.Man.2000Secret.Agent.Man.S01E01.DVDRip.Rus.Eng.From.Prima.With.Love.avi
Формат : AVI
Формат/Информация : Audio Video Interleave
Размер файла : 427 Мбайт
Продолжительность : 42 м.
Общий поток : 1417 Кбит/сек
Программа кодирования : VirtualDubModRus 1.5.10.2 (build 2542/release)
Библиотека кодирования : VirtualDubMod build 2542/release

Видео
Идентификатор : 0
Формат : MPEG-4 Visual
Параметр BVOP формата : 1
Параметр QPel формата : Нет
Параметр GMC формата : Без точки перехода
Параметр матрицы формата : Default (H.263)
Режим смешивания : Сжатый битовый поток
Идентификатор кодека : DX50
Идентификатор кодека/Подсказка : DivX 5
Продолжительность : 42 м.
Битрейт : 1019 Кбит/сек
Ширина : 672 пикселя
Высота : 512 пикселей
Соотношение сторон : 4:3
Частота кадров : 25,000 кадров/сек
Цветовое пространство : YUV
Субдискретизация насыщенности : 4:2:0
Битовая глубина : 8 бит
Тип развёртки : Прогрессивная
Метод сжатия : С потерями
Бит/(Пиксели*Кадры) : 0.118
Размер потока : 307 Мбайт (72%)
Библиотека кодирования : DivX 5.1.1 (Maupiti) (UTC 2003-11-19)

Аудио #1
Идентификатор : 1
Формат : MPEG Audio
Версия формата : Version 1
Профиль формата : Layer 3
Режим : Joint stereo
Идентификатор кодека : 55
Идентификатор кодека/Подсказка : MP3
Продолжительность : 42 м.
Вид битрейта : Постоянный
Битрейт : 192 Кбит/сек
Каналы : 2 канала
Частота : 48,0 КГц
Метод сжатия : С потерями
Размер потока : 57,8 Мбайт (14%)
Выравнивание : Соединение по промежуткам
Продолжительность промежутка : 40 мс. (1,00 видеокадр)
Время предзагрузки промежутка : 504 мс.
Язык : English

Аудио #2
Идентификатор : 2
Формат : MPEG Audio
Версия формата : Version 1
Профиль формата : Layer 3
Режим : Joint stereo
Идентификатор кодека : 55
Идентификатор кодека/Подсказка : MP3
Продолжительность : 42 м.
Вид битрейта : Постоянный
Битрейт : 192 Кбит/сек
Каналы : 2 канала
Частота : 48,0 КГц
Метод сжатия : С потерями
Размер потока : 57,8 Мбайт (14%)
Выравнивание : Соединение по промежуткам
Продолжительность промежутка : 40 мс. (1,00 видеокадр)
Время предзагрузки промежутка : 504 мс.




реклама партнёра


Вернуться к началу
 Профиль Отправить личное сообщение  
 
   Похожие торренты   Автор   Торрент   Размер 
В этой теме нет новых непрочитанных сообщений. Агент Картер / Agent Carter [2 сезон: 1-5 серии из 10] [Боевик, приключения, фэнтези, 2016] WEB-DLRip [Lostfilm]

Dracon

45 | 60

2.44 ГБ

В этой теме нет новых непрочитанных сообщений. Agent 69 / Агент 69 (Jay Allan, Feature, Spies & Secret Agents) [2017 г., Feature, Spies & Secret Agents, WEB-DL] (Split Scenes)

salma3

25 | 8

1.6 ГБ

В этой теме нет новых непрочитанных сообщений. Агент Картер / Agent Carter (Сезон 1-2, Серия 1-18 из 18) (Луис Д'Эспозито, Питер Лето) [2015-2016 , Фантастика, боевик, приключения, криминал, драма , WEB-DLRip-AVC 1080p] [MVO] [LostFilm , Nevafilm , English] + [Subs Rus,ENG]

Враг Нароода

0 | 0

32.66 ГБ

В этой теме нет новых непрочитанных сообщений. Секретный агент / Unlocked [Боевик, триллер, 2017] BDRip-AVC, Dub [Лицензия]

salma3

274 | 117

1.44 ГБ

В этой теме нет новых непрочитанных сообщений. Секретный агент / Unlocked [Боевик, триллер, 2017] Blu-Ray 1080p, Dub+Sub [Лицензия]

salma3

55 | 42

22.35 ГБ

В этой теме нет новых непрочитанных сообщений. Секретный агент / Unlocked [Боевик, триллер, 2017] BDRip, Dub [Лицензия]

salma3

1363 | 266

1.46 ГБ

В этой теме нет новых непрочитанных сообщений. Секретный агент / Unlocked [Боевик, триллер, 2017] BDRip-AVC, Dub [iTunes]

salma3

75 | 6

1.39 ГБ


Начать новую тему Ответить на тему  [ 1 сообщение ] 




Для Мосгорсуда, Роскомнадзора и рекламодателей:: mosgorsud-torrent[собачка]yandex.ru