Торрент файл
скачать торрент магнет ссылка Добавлен: 23 июн 2013, 01:58
Размер: 18.83 ГБ
Сидеров: 37
Личеров: 7
Автор

СообщениеДобавлено: 23 июн 2013, 02:03 

Не в сети
2 Звезды
Аватара пользователя
Дата регистрации:
10 окт 2010, 20:23
Возраст: 61
Спасибо: 179 / 0
Сообщения: 323
Откуда: КРАСНОГОРСК
Краплёный



Год выпуска: 2012
Выпущено:: Россия, Про-Синема продакшн
Жанр: Криминал
Продолжительность: 00:46:00
Серии: 1-24
Количество серий в сезоне: 24



Режиссер: Ярослав Мочалов

В ролях: Валерий Золотухин, Андрей Феськов, Вячеслав Крикунов, Яна Гладких, Дарья Мороз, Павел Баршак, Владимир Зайцев, Игорь Бочкин, Алексей Гуськов, Владимир Капустин, Алексей Ошурков
Дружная команда молодых талантливых учёных разрабатывают идею, которая может в корне перевернуть принципы индивидуальной защиты силовых структур и армии. Они живут полнокровной жизнью в своём любимом деле, в любви к девушкам, в настоящей мужской дружбе и выручке. Но непредвиденная ситуация, подставившая под удар одного из них, заставляет пересмотреть привычные человеческие принципы. И в этой обстановке начинают работать более приземлённые, но в чём-то более справедливые "блатные" понятия. Лишь они, и сила духа помогут интеллигентным героям выбраться из скользкой ямы интриг, коррупции и обычного человеческого предательства.

Качество: DVDRip-AVC
Формат: MPEG-4
Видео кодек: H264
Видео: 25215Кбит/сек,1024х576(16/9),в 25.000кадр/сек,AVC(NTSC)(Baseline@L3.1)(1Ref Frames)
Аудио кодек: AAC
Аудио Russian Dolby Digital 5.1: 201Кбит/сек,44.1КГц,6каналов,AAC,(Version4)(LC)

Звуковая дорожка сделана путем наложения чистого голоса озвучивателей на центральный канал оригинальной дорожки. Качество идентично звуковой дорожке.


General
Полное имя : G:\Краплёный\Krapljonyj_2012_Е01-Е24_DD5.1_x264_Nikolai.Baranov_DVDRip-AVC\Krapljonyj_2012_Е01Е03_DD5.1_x264_Nikolai.Baranov_DVDRip-AVC.mp4
Формат : MPEG-4
Профиль формата : Base Media
Идентификатор кодека : isom
Размер файла : 2.52 GiB
Продолжительность : 1h 6mn
Режим общего битрейта : Variable
Общий поток : 5 420 Kbps
Дата кодирования : UTC 2013-06-22 08:30:03
Дата пометки : UTC 2013-06-22 08:30:03
Программа кодирования : Lavf51.12.1

Video
Идентификатор : 1
Формат : AVC
Формат/Информация : Advanced Video Codec
Профиль формата : Baseline@L3.1
Параметр CABAC формата : No
Параметр ReFrames формата : 1 frame
Параметр GOP формата : M=1, N=12
Идентификатор кодека : avc1
Идентификатор кодека/Информация : Advanced Video Coding
Продолжительность : 1h 6mn
Вид битрейта : Variable
Битрейт : 5 215 Kbps
Максимальный битрейт : 7 500 Kbps
Ширина : 1 024 pixels
Высота : 576 pixels
Соотношение сторон : 16:9
Режим частоты кадров : Constant
Частота кадров : 25.000 fps
Частота кадров в оригинале : 24.000 fps
Цветовое пространство : YUV
Субдискретизация насыщенности : 4:2:0
Битовая глубина : 8 bits
Тип развёртки : Progressive
Бит/(Пиксели*Кадры) : 0.354
Размер потока : 2.42 GiB (96%)
Дата кодирования : UTC 2013-06-22 08:30:03
Дата пометки : UTC 2013-06-22 08:30:03

Audio
Идентификатор : 2
Формат : AAC
Формат/Информация : Advanced Audio Codec
Профиль формата : LC
Идентификатор кодека : 40
Продолжительность : 1h 6mn
Вид битрейта : Variable
Битрейт : 201 Kbps
Каналы : 6 channels
Расположение каналов : Front: L C R, Side: L R, LFE
Частота : 44.1 KHz
Метод сжатия : Lossy
Размер потока : 95.8 MiB (4%)
Дата кодирования : UTC 2013-06-22 08:30:03
Дата пометки : UTC 2013-06-22 08:30:03






[hr]

Релиз от: Nikolai.Baranov







_________________

Легко быть оптимистом, когда судьба не валит с ног тяжелыми ударами, а лишь иногда легонько шлепает по заднице.



реклама партнёра


Вернуться к началу
 Профиль Отправить личное сообщение  
 
   Похожие торренты   Автор   Торрент   Размер 
В этой теме нет новых непрочитанных сообщений. Принцип Хабарова / Заклятые друзья (1-16 серии из 16) [детектив, криминал, 2012] WEB-DLRip-AVC

salma3

132 | 31

9.73 ГБ

В этой теме нет новых непрочитанных сообщений. Голубая кровь / Blue Bloods / 3 сезон 1-5 серии из 23 [Драма, криминал, 2012] WEB-DLRip, Dvo [CBS Drama]

salma3

1 | 2

1.97 ГБ

В этой теме нет новых непрочитанных сообщений. Голубая кровь / Blue Bloods / 3 сезон 1-23 серии из 23 [Драма, криминал, 2012] WEB-DL 720p, Dvo [CBS Drama]

salma3

5 | 16

31.53 ГБ

В этой теме нет новых непрочитанных сообщений. Голубая кровь / Blue Bloods / 3 сезон 1-23 серии из 23 [Драма, криминал, 2012] WEB-DLRip, Dvo [CBS Drama]

salma3

8 | 12

10.62 ГБ

В этой теме нет новых непрочитанных сообщений. Морская Полиция: Лос-Анджелес / NCIS: Los Angeles / 3 сезон 1-19 серии из 24 [Триллер, драма, криминал, детектив, боевик, 2011-2012] WEB-DLRip, Mvo [FOX]

salma3

0 | 1

13.17 ГБ

В этой теме нет новых непрочитанных сообщений. Дон Корлеоне / Il Capo dei capi / 1-12 серии из 12 [драма, криминал, история, 2007] DVDRip, Mvo

salma3

63 | 6

8.21 ГБ

В этой теме нет новых непрочитанных сообщений. Фиксики: Любимые серии... (2012) [2012, мультфильм, детский] (Васико Бедошвили)

marya111

0 | 2

36.44 ГБ


Начать новую тему Ответить на тему  [ 1 сообщение ] 




Для Мосгорсуда, Роскомнадзора и рекламодателей:: mosgorsud-torrent[собачка]yandex.ru