Торрент файл
скачать торрент магнет ссылка Добавлен: 18 май 2013, 20:04
Размер: 10.22 ГБ
Сидеров: 56
Личеров: 27
Статус: (salma3)
Автор

СообщениеДобавлено: 18 май 2013, 20:04 

Не в сети
Зам. Админа
Аватара пользователя
Дата регистрации:
02 дек 2010, 12:39
Спасибо: 12461 / 214
Сообщения: 27968


Год выпуска: 2012
Страна: США
Жанр:Детектив, мелодрама
Продолжительность: 22 х ~ 00:43:00
Перевод: Профессиональный (многоголосый закадровый) - LostFilm
Субтитры: Нет
Режиссер: Гэри Фледер

В ролях: Кристин Кройк, Брайан Дж. Уайт, Николь Гэйл Андерсон, Джей Райан, Макс Браун, Остин Басис, Нина Лизандрелло, Ник Стоянович

Описание: Современная история классической любовной мелодрамы "Красавица и чудовище" . Show case представляет новый фантастический одноименный сериал о жизни копа полиции Нью-Йорка, которая имеет больших и влиятельных врагов, и ее жизнь была под угрозой, но у нее есть ангел хранитель, который всегда следует за ней, и вытаскивает ее из страшных ситуаций. Но лицо он не стремится показывать ведь он чудовище, но с влюбленным сердцем...



Качество: WEB-DLRip
Формат: AVI
Видео кодек: XviD
Аудио кодек: MP3
Видео: XviD, ~ 1587 Кбит/с, 720x400
Аудио rus: MP3, 2 ch, 192 Кбит/с

Добавлена 22-ая серия. Сезон полностью.


01. Пилот
02. Соблюдайте осторожность
03. Всё включено
04. Основной инстинкт / Basic Instinct
05. Возвращение Сатурна / Saturn Returns
06. Цена / Worth
07. Неуправляемый / Out of Control
08. В ловушке / Trapped
09. Подружка невесты, встань! / Bridesmaid Up!
10. Обезумевший / Seeing Red
11. По тонкому льду / On Thin Ice
12. В завязке / Cold Turkey
13. Никому не верь / Trust No One
14. Трудная любовь / Tough Love
15. Все средства хороши
16. Ненасытный / Insatiable
17. Напарники по преступлению / Partners in Crime
18. Сердце тьмы / Heart of Darkness
19. Игра с огнем / Playing with Fire
20. Годовщина / Anniversary
21. Вечер свиданий / Date Night
22. Не смотри назад / Never Turn Back
Формат: AVI
Формат/Информация: Audio Video Interleave
Размер файла: 546 Мбайт
Продолжительность: 42 м.
Общий поток: 1787 Кбит/сек
Программа кодирования: Nandub v1.0rc2
Библиотека кодирования: Nandub build 1853/release

Видео
Идентификатор: 0
Формат: MPEG-4 Visual
Профиль формата: Simple@L3
Параметр BVOP формата: Нет
Параметр QPel формата: Нет
Параметр GMC формата: Без точки перехода
Параметр матрицы формата: Default (H.263)
Идентификатор кодека: XVID
Идентификатор кодека/Подсказка: XviD
Продолжительность: 42 м.
Битрейт: 1587 Кбит/сек
Ширина: 720 пикс.
Высота: 400 пикс.
Соотношение сторон: 16:9
Частота кадров: 23,976 кадр/сек
Цветовое пространство: YUV
Подвыборка цветности: 4:2:0
Битовая глубина: 8 бит
Тип развёртки: Прогрессивная
Метод сжатия: С потерями
Бит/(Пиксели*Кадры): 0.230
Размер потока: 485 Мбайт (89%)
Библиотека кодирования: XviD 1.2.1 (UTC 2008-12-04)

Аудио
Идентификатор: 1
Формат: MPEG Audio
Версия формата: Version 1
Профиль формата: Layer 3
Режим: Joint stereo
Идентификатор кодека: 55
Идентификатор кодека/Подсказка: MP3
Продолжительность: 42 м.
Вид битрейта: Переменный
Битрейт: 192 Кбит/сек
Каналы: 2 канала
Частота: 48,0 КГц
Метод сжатия: С потерями
Размер потока: 57,4 Мбайт (11%)
Выравнивание: Соединение по промежуткам
Продолжительность промежутка: 24мс. (0,58 видеокадр)
Время предзагрузки промежутка: 507 ms
Библиотека кодирования: LAME3.97b
Настройки программы: -m j -V 4 -q 3 -lowpass 18.6 --abr 192



Релиз от:




реклама партнёра


Вернуться к началу
 Профиль  
 
   Похожие торренты   Автор   Торрент   Размер 
В этой теме нет новых непрочитанных сообщений. Красавица и чудовище / Beauty and the Beast / 2 сезон 1-22 серии из 22 [триллер, драма, криминал, детектив, 2013-2014] WEB-DLRip 720p, Mvo [LostFilm]

salma3

31 | 64

31.23 ГБ

В этой теме нет новых непрочитанных сообщений. Красавица и Чудовище / Beauty and the Beast / 4 сезон 1-13 серия из 13 [триллер, драма, криминал, детектив, 2016] WEB-DLRip, Mvo [LostFilm]

salma3

191 | 196

6.98 ГБ

В этой теме нет новых непрочитанных сообщений. Красавица и Чудовище / Beauty and the Beast [03х01-13 из 13] (Рик Бота, Стивен А. Эделсон, Майрзи Алмас) [триллер, драма, криминал, детектив, 2015] WEB-DLRip, [LostFilm]

Dracon

92 | 44

4.96 ГБ

В этой теме нет новых непрочитанных сообщений. Красавица и чудовище / Beauty and the Beast [03х01-13 из 13] (Рик Бота, Стюарт Гиллард, Стивен А. Эделсон, Фред Гербер, Майрзи Алмас) [триллер, драма, криминал, детектив, 2015] WEB-DL 720p [LostFilm]

Dracon

13 | 4

16 ГБ

В этой теме нет новых непрочитанных сообщений. Красавица и чудовище / Beauty and the Beast [03х01-13 из 13] (Рик Бота, Стюарт Гиллард, Стивен А. Эделсон, Фред Гербер, Майрзи Алмас) [триллер, драма, криминал, детектив, 2015] WEB-DL 1080p [LostFilm]

Dracon

41 | 40

22.87 ГБ

В этой теме нет новых непрочитанных сообщений. Красавица и чудовище / Beauty and the Beast [Мультфильм, Мюзикл, Фэнтези, Мелодрама, Семейный, 1991] BDRip 1080p, Dub+Sub [3D-Video]

Dracon

254 | 19

8.16 ГБ

В этой теме нет новых непрочитанных сообщений. Дневники Вампира / The Vampire Diaries / 7 сезон 1-22 серии из 22 (Маркос Сига, Роб Харди, Дэвид Фон Энкен, Дж. Миллер Тобин) [2015, ужасы, фэнтези, триллер, драма, мелодрама, детектив, WEB-DLRip | LostFilm]

Dracon

316 | 265

8.29 ГБ


Начать новую тему Ответить на тему  [ 1 сообщение ] 




Для Мосгорсуда, Роскомнадзора и рекламодателей:: mosgorsud-torrent[собачка]yandex.ru