Торрент файл
скачать торрент магнет ссылка Добавлен: 13 май 2013, 09:55
Размер: 33.35 ГБ
Сидеров: 4
Личеров: 4
Автор

СообщениеДобавлено: 13 май 2013, 09:55 

Не в сети
Зам. Админа
Аватара пользователя
Дата регистрации:
02 дек 2010, 12:39
Спасибо: 12461 / 214
Сообщения: 27968
Добавлена 23 серия 8-го сезона

Год выпуска: 2005 – 2013
Страна: США
Жанр:мелодрама, комедия
Продолжительность: 00:25:00
Перевод: Профессиональный одноголосый закадровый (Кураж-Бамбей)
Русские субтитры: нет

Режиссёр: Картер Бэйс / Carter Bays, Памела Фрайман / Pamela Fryman, Крейг Томас / Craig Thomas

В ролях: Джош Рэднор, Джейсон Сигел, Коби Смолдерс, Нил Патрик Харрис, Элисон Хэннигэн

Описание: «Как я встретил вашу маму» — комедия про Теда и про то, как он влюбился. Все неприятности начинаются с того, что лучший друг Теда, Маршалл, вдруг неожиданно сообщил, что он хочет сделать предложение своей давней подруге, Лили, воспитательнице детского сада. К тому времени Тед понимает, что ему нужно прилагать больше усилий, если он действительно надеется найти свою настоящую любовь. Помогает ему в этих поисках его друг Барни, убежденный холостяк, вечно со своим, иногда чересчур, мнением на все происходящее, со склонностью к костюмам и верным способом познакомиться с девушками. Когда Тед встречает Робин, он решает, что это любовь с первого взгляда, но у судьбы в запасе есть кое-что еще.

Сэмпл
Качество: HDTVRip
Формат: AVI

Видео:
624x352 (16/9), 23.976 fps, XViD ~1 024 Kbps (0.209 bit/pixel) – Сезон 1: 22 серии
640x352 (16/9), 23.976 fps, XViD ~978 Kbps (0.181 bit/pixel) – Сезон 2: 22 серии
624x352 (16/9), 23.976 fps, XViD ~1 030 Kbps (0.196 bit/pixel) – Сезон 3: 20 серий – DVDRip
640x352 (16/9), 23.976 fps, XViD ~975 Kbps (0.181 bit/pixel) – Сезон 4: 24 серии
720x400 (16/9), 23.976 fps, XViD ~1 107 Kbps (0.160 bit/pixel) – Сезон 5: 24 серии
624x352 (16/9), 23.976 fps, XViD ~1 009 Kbps (0.192 bit/pixel) – Сезон 6: 24 серии – WEB-DLRip
624x352 (16/9), 23.976 fps, XViD ~1 001 Kbps (0.190 bit/pixel) – Сезон 7: 24 серии
656x368 (16/9), 23.976 fps, XViD ~1 031 Kbps (0.178 bit/pixel) – Сезон 8: пока 23 серии...
Аудио: Русский: 48 kHz, MPEG Layer 3, 2 ch, ~160.00 kbps avg

Раздача от: Релизер: Roman


» В одной из серий к Барни приезжает его брат, Джеймс, который является геем. В реальной жизни исполнитель роли Барни, Нил Патрик Харрис — представитель секс-меньшинств.
» Вступительную песню под названием «Hey Beautiful» исполняет группа «The Solids», основателями которой являются создатели сериала Томас Крейг и Картер Бейз.
» Братский кодекс (англ. The Bro Code), про который так часто упоминает Барни на протяжении всего сериала, был выпущен издательством «Simon & Schuster» в 2008 году.
» Прообразом бара «MacLaren`s» — любимого бара главных героев, является реально существующий в Нью-Йорке бар «McGee`s». В сериале бар назван так в честь помощника Картера Бейза — Карла МакЛарена, бармена в сериале также зовут Карл.
» В квартире Маршала и Теда, как и в известном фильме «Криминальное чтиво», часы всегда показывают 4:20.



При каждом добавлении создётся новый торрент. Чтобы начать докачку новой серии, пользователям необходимо сделать следующее:
1) остановить скачивание,
2) удалить старый торрент у себя из клиента (старые серии удалять не надо),
3) скачать новый торрент и запустить его у себя в клиенте вместо старого, при этом указать клиенту путь в старую папку куда и должно происходить скачивание новых серий.
Ваш клиент при этом должен произвести хеширование (проверку) старой папки (если не производит сам - помогите ему сделать это), и будет докачивать только те серии которых у вас ещё нет. Старые серии при этом не удаляются, а продолжают раздаваться!
Eсли вы уже удалили старые серии, то предотвратить повторную закачку старых серий можно, отжав галочку в соответсвующих местах при запуске нового торрента.



General
Complete name: ..How I Met Your MotherSeason 1�1 – Pilot.avi
Format: AVI
Format/Info: Audio Video Interleave
File size: 181 MiB
Duration: 22mn 4s
Overall bit rate: 1 146 Kbps
Writing application: Nandub v1.0rc2
Writing library: VirtualDub-MPEG2 build 24586/release

Video
ID: 0
Format: MPEG-4 Visual
Format profile: Simple@L3
Format settings, BVOP: 2
Format settings, QPel: No
Format settings, GMC: No warppoints
Format settings, Matrix: Default (MPEG)
Codec ID: XVID
Codec ID/Hint: XviD
Duration: 22mn 4s
Bit rate: 977 Kbps
Width: 624 pixels
Height: 352 pixels
Display aspect ratio: 16:9
Frame rate: 23.976 fps
Color space: YUV
Chroma subsampling: 4:2:0
Bit depth: 8 bits
Scan type: Progressive
Compression mode: Lossy
Bits/(Pixel*Frame): 0.185
Stream size: 154 MiB (85%)
Writing library: XviD 1.1.0 Beta2 (UTC 2005-04-04)

Audio
ID: 1
Format: MPEG Audio
Format version: Version 1
Format profile: Layer 3
Codec ID: 55
Codec ID/Hint: MP3
Duration: 22mn 4s
Bit rate mode: Constant
Bit rate: 160 Kbps
Channel(s): 2 channels
Sampling rate: 48.0 KHz
Compression mode: Lossy
Stream size: 25.3 MiB (14%)
Alignment: Aligned on interleaves
Interleave, duration: 42 ms (1.00 video frame)
Interleave, preload duration: 504 ms









реклама партнёра


Вернуться к началу
 Профиль  
 
   Похожие торренты   Автор   Торрент   Размер 
В этой теме нет новых непрочитанных сообщений. Как я встретил вашу маму / How I Met Your Mother [S04] (Памела Фрайман, Роб Гринберг, Майкл Дж.) [2008-2009, комедия, мелодрама, WEB-DL 720p | Кураж-Бамбей, Paramount Comedy, MTV]

Dracon

17 | 6

17.99 ГБ

В этой теме нет новых непрочитанных сообщений. My Wife Caught Me Assfucking Her Mother 9 / Моя Жена Застала Меня Трахающим Ее Маму в Задницу 9 (Devil's Films) [2016 г., Gonzo, Anal, Mature, MILF, DVDRip]

max77777

71 | 8

1.27 ГБ

В этой теме нет новых непрочитанных сообщений. I'm Gonna Bang Your Mother 2 / Я Собираюсь Трахнуть Вашу Маму 2 (Brazzers) (Ava Addams, Diamond Foxxx, Holly Halston, Kelly Madison, Kendra Lust...) [2014 г., All Sex, MILF / Cougar, WEB-DL 404p]

friizze

38 | 9

2.85 ГБ

В этой теме нет новых непрочитанных сообщений. Когда Гарри встретил Салли / When Harry Met Sally... [драма, мелодрама, комедия, 1989] BDRip 720p, Mvo+Avo+Sub [Лицензия]

salma3

62 | 3

5.76 ГБ

В этой теме нет новых непрочитанных сообщений. Колдунья / Bewitched [Фэнтези, Мелодрама, Комедия, 2005] HDTVRip, Dub

salma3

2 | 2

1.45 ГБ

В этой теме нет новых непрочитанных сообщений. Psykkle - Mother Monoxide [2013, Dark Electro, EBM, Industrial, MP3]

PriZraK

0 | 1

148.91 МБ

В этой теме нет новых непрочитанных сообщений. Sacred Mother Tongue - Out Of The Darkness [2013, Modern Metal, Metalcore, MP3]

PriZraK

0 | 5

101.52 МБ


Начать новую тему Ответить на тему  [ 1 сообщение ] 




Для Мосгорсуда, Роскомнадзора и рекламодателей:: mosgorsud-torrent[собачка]yandex.ru