Торрент файл
скачать торрент магнет ссылка Добавлен: 29 апр 2013, 11:33
Размер: 22.09 ГБ
Сидеров: 6
Личеров: 7
Автор

СообщениеДобавлено: 29 апр 2013, 11:33 

Не в сети
Зам. Админа
Аватара пользователя
Дата регистрации:
02 дек 2010, 12:39
Спасибо: 12461 / 214
Сообщения: 27968


Год выхода: 2012
Жанр: драма, мелодрама, вестерн, военный, история
Режиссер: Кевин Рейнольдс

В ролях: Кевин Костнер, Билл Пэкстон, Мэтт Барр, Том Беренджер, Пауэрс Бут, Эндрю Ховард, Джена Мэлоун, Сара Пэриш, Линдсей Палсифер, Ронан Вайберт, Джо Эбсолом, Ноэль Фишер, Бойд Холбрук, Том МакКэй, Сэм Рейд, Мэр Уиннингхэм, Грег Пэтмор, Макс Дикон, Джон Белл, Ник Даннинг, Кэти Гриффитс, Джой МакБринн, Адам Джонс, Жилон Гай, Дэмиан О’Хейр, Энди Гэтергуд, Ноа Тейлор, Ллойд Хатчинсон, Майкл Греко, Бен Картрайт, Джек Лэски, Джонатан Фредрик, Майкл Джибсон

О фильме:
Это реальная американская история легендарной семейной вражды, которая длилась несколько десятилетий, и почти развязала войну между Кентукки и Западной Виргинией. Хроника столкновения кланов, наполненная страстью, мужеством, местью, самопожертвованием, преступлениями и обвинениями, беспрестанно меняющими обе семьи, и места где они жили.Сага начинается с Уильяма Андерсона Хэтфилда и Рэндала МакКоя. Близкие друзья и товарищи, ближе к концу Гражданской Войны, они возвращаются в свои дома — Хэтфилд в Западную Виргинию, МакКой, по соседству через реку, в Кентукки — и тут растущие напряжения, недопонимания и обиды, начинают перерастать в тотальные войны между их семьями. Конфликт между кланами втянул в себя всех: друзей, соседей и множество людей, не имеющих отношения к происходящему, в результате чего два штата были поставленные перед угрозой новой гражданской войны.



Автор рипа: Hatfield..

Страна: США
Продолжительность: 1 серия: 01:42:33, 2 серия: 01:38:39, 3 серия: 01:28:56
Перевод: Профессиональный (многоголосый,закадровый) (AlexFilm) + Любительский (многоголосый,закадровый) (ViruseProject)

Роли озвучивали: (AlexFilm):Светлана Чистохина,Татьяна Манетина,Пётр Иващенко (Гланц),Михаил Суслов,Владимир Курдов,Александр Дасевич,Семён Ващенко

Роли озвучивали: (ViruseProject):Pro-Snip (Дмитрий Иванов ),nightfall75 (Алекс Викке),Kenum (Владислав Данилов),48 kbps (Сергей Павловский ),Иван Головачев,IgVin (Игорь Головин),neophytmusic (Борис Александров),Дмитрий Кравченко,viruse (Виталий Емельянов),Ёлка (Елена Емельянова),marviha (Марина Видякина),Зая (Лидия Левченко),Светлана Строева

Кодек: x264
Качество: BDRip (Оригинал: Blu-ray Disc)
Видео: 1920x1080 (16:9), 23.976 fps, 10 000 Kbps
Звук:
Аудио #1: AC-3, 6 ch, 448 Kbps
Аудио #2: AC-3, 6 ch, 448 Kbps
Субтитры: Русские (форсированные)

1 серия
General
Unique ID : 180262967894137055327739164251988067285 (0x879D62807E230CF69928F2274C8683D5)
Complete name :Hatfields.and.McCoys.Part.1.(2012).mkv
Format : Matroska
Format version : Version 2
File size : 7.81 GiB
Duration : 1h 42mn
Overall bit rate : 10.9 Mbps
Movie name : Hatfields.and.McCoys.Part.1.(2012)
Encoded date : UTC 2013-04-24 18:16:52
Writing application : mkvmerge v5.8.0 ('No Sleep / Pillow') built on Sep2 2012 15:37:04
Writing library : libebml v1.2.3 + libmatroska v1.3.0

Video #1
ID : 1
Format : AVC
Format/Info : Advanced Video Codec
Format profile : High@L4.1
Format settings, CABAC : Yes
Format settings, ReFrames : 4 frames
Codec ID : V_MPEG4/ISO/AVC
Duration : 1h 42mn
Bit rate : 10 000 Kbps
Width : 1 920 pixels
Height : 1 080 pixels
Display aspect ratio : 16:9
Frame rate mode : Constant
Frame rate : 23.976 fps
Color space : YUV
Chroma subsampling : 4:2:0
Bit depth : 8 bits
Scan type : Progressive
Bits/(Pixel*Frame) : 0.201
Stream size : 7.01 GiB (90%)
Title : Hatfield..
Writing library : x264 core 130 r2273 b3065e6
Encoding settings : cabac=1 / ref=4 / deblock=1:0:0 / analyse=0x3:0x113 / me=umh / subme=10 / psy=1 / psy_rd=1.00:0.10 / mixed_ref=1 / me_range=32 / chroma_me=1 / trellis=2 / 8x8dct=1 / cqm=0 / deadzone=21,11 / fast_pskip=0 / chroma_qp_offset=-3 / threads=2 / lookahead_threads=1 / sliced_threads=0 / nr=0 / decimate=0 / interlaced=0 / bluray_compat=0 / constrained_intra=0 / bframes=5 / b_pyramid=2 / b_adapt=2 / b_bias=0 / direct=3 / weightb=1 / open_gop=0 / weightp=2 / keyint=240 / keyint_min=23 / scenecut=40 / intra_refresh=0 / rc_lookahead=40 / rc=2pass / mbtree=0 / bitrate=10000 / ratetol=1.0 / qcomp=0.60 / qpmin=0 / qpmax=69 / qpstep=4 / cplxblur=20.0 / qblur=0.5 / vbv_maxrate=62500 / vbv_bufsize=78125 / nal_hrd=none / ip_ratio=1.40 / pb_ratio=1.30 / aq=1:0.80
Language : English
Default : Yes
Forced : No

Audio #2
ID : 2
Format : AC-3
Format/Info : Audio Coding 3
Mode extension : CM (complete main)
Format settings, Endianness : Big
Codec ID : A_AC3
Duration : 1h 42mn
Bit rate mode : Constant
Bit rate : 448 Kbps
Channel(s) : 6 channels
Channel positions : Front: L C R, Side: L R, LFE
Sampling rate : 48.0 KHz
Bit depth : 16 bits
Compression mode : Lossy
Stream size : 329 MiB (4%)
Title : Профессиональный (многоголосый,закадровый) (AlexFilm)
Language : Russian
Default : Yes
Forced : No

Audio #3
ID : 3
Format : AC-3
Format/Info : Audio Coding 3
Mode extension : CM (complete main)
Format settings, Endianness : Big
Codec ID : A_AC3
Duration : 1h 42mn
Bit rate mode : Constant
Bit rate : 448 Kbps
Channel(s) : 6 channels
Channel positions : Front: L C R, Side: L R, LFE
Sampling rate : 48.0 KHz
Bit depth : 16 bits
Compression mode : Lossy
Stream size : 329 MiB (4%)
Title : Любительский (многоголосый,закадровый) (ViruseProject)
Language : Russian
Default : No
Forced : No

Text #4
ID : 4
Format : UTF-8
Codec ID : S_TEXT/UTF8
Codec ID/Info : UTF-8 Plain Text
Title : Russian (forced)
Language : Russian
Default : Yes
Forced : Yes

Menu
00:00:00.000 : en:00:00:00.000
00:19:35.382 : en:00:19:35.382
00:30:02.967 : en:00:30:02.967
00:39:10.264 : en:00:39:10.264
00:46:22.237 : en:00:46:22.237
00:58:15.783 : en:00:58:15.783
01:10:43.697 : en:01:10:43.697
01:18:26.284 : en:01:18:26.284
01:29:51.803 : en:01:29:51.803
01:41:54.233 : en:01:41:54.233
x264 [info]: frame I:1259Avg QP:14.00size:214594
x264 [info]: frame P:42212 Avg QP:16.41size: 94141
x264 [info]: frame B:104058 Avg QP:18.19size: 33150


2 серия
General
Unique ID : 250726766982740704173575170882506255839 (0xBCA03805D79FB0A99D1A71D9F382EDDF)
Complete name :Hatfields.and.McCoys.Part.2.(2012).mkv
Format : Matroska
Format version : Version 2
File size : 7.51 GiB
Duration : 1h 38mn
Overall bit rate : 10.9 Mbps
Movie name : Hatfields.and.McCoys.Part.2.(2012)
Encoded date : UTC 2013-04-27 04:31:46
Writing application : mkvmerge v5.8.0 ('No Sleep / Pillow') built on Sep2 2012 15:37:04
Writing library : libebml v1.2.3 + libmatroska v1.3.0

Video #1
ID : 1
Format : AVC
Format/Info : Advanced Video Codec
Format profile : High@L4.1
Format settings, CABAC : Yes
Format settings, ReFrames : 4 frames
Codec ID : V_MPEG4/ISO/AVC
Duration : 1h 38mn
Bit rate : 10 000 Kbps
Width : 1 920 pixels
Height : 1 080 pixels
Display aspect ratio : 16:9
Frame rate mode : Constant
Frame rate : 23.976 fps
Color space : YUV
Chroma subsampling : 4:2:0
Bit depth : 8 bits
Scan type : Progressive
Bits/(Pixel*Frame) : 0.201
Stream size : 6.74 GiB (90%)
Title : Hatfield..
Writing library : x264 core 130 r2273 b3065e6
Encoding settings : cabac=1 / ref=4 / deblock=1:0:0 / analyse=0x3:0x113 / me=umh / subme=10 / psy=1 / psy_rd=1.00:0.10 / mixed_ref=1 / me_range=32 / chroma_me=1 / trellis=2 / 8x8dct=1 / cqm=0 / deadzone=21,11 / fast_pskip=0 / chroma_qp_offset=-3 / threads=2 / lookahead_threads=1 / sliced_threads=0 / nr=0 / decimate=0 / interlaced=0 / bluray_compat=0 / constrained_intra=0 / bframes=5 / b_pyramid=2 / b_adapt=2 / b_bias=0 / direct=3 / weightb=1 / open_gop=0 / weightp=2 / keyint=240 / keyint_min=23 / scenecut=40 / intra_refresh=0 / rc_lookahead=40 / rc=2pass / mbtree=0 / bitrate=10000 / ratetol=1.0 / qcomp=0.60 / qpmin=0 / qpmax=69 / qpstep=4 / cplxblur=20.0 / qblur=0.5 / vbv_maxrate=62500 / vbv_bufsize=78125 / nal_hrd=none / ip_ratio=1.40 / pb_ratio=1.30 / aq=1:0.80
Language : English
Default : Yes
Forced : No

Audio #2
ID : 2
Format : AC-3
Format/Info : Audio Coding 3
Mode extension : CM (complete main)
Format settings, Endianness : Big
Codec ID : A_AC3
Duration : 1h 38mn
Bit rate mode : Constant
Bit rate : 448 Kbps
Channel(s) : 6 channels
Channel positions : Front: L C R, Side: L R, LFE
Sampling rate : 48.0 KHz
Bit depth : 16 bits
Compression mode : Lossy
Stream size : 316 MiB (4%)
Title : Профессиональный (многоголосый,закадровый) (AlexFilm)
Language : Russian
Default : Yes
Forced : No

Audio #3
ID : 3
Format : AC-3
Format/Info : Audio Coding 3
Mode extension : CM (complete main)
Format settings, Endianness : Big
Codec ID : A_AC3
Duration : 1h 38mn
Bit rate mode : Constant
Bit rate : 448 Kbps
Channel(s) : 6 channels
Channel positions : Front: L C R, Side: L R, LFE
Sampling rate : 48.0 KHz
Bit depth : 16 bits
Compression mode : Lossy
Stream size : 316 MiB (4%)
Title : Любительский (многоголосый,закадровый) (ViruseProject)
Language : Russian
Default : No
Forced : No

Text #4
ID : 4
Format : UTF-8
Codec ID : S_TEXT/UTF8
Codec ID/Info : UTF-8 Plain Text
Title : Russian (forced)
Language : Russian
Default : Yes
Forced : Yes

Menu
00:00:00.000 : en:00:00:00.000
00:17:29.840 : en:00:17:29.840
00:33:53.448 : en:00:33:53.448
00:40:27.216 : en:00:40:27.216
00:48:55.474 : en:00:48:55.474
00:56:11.284 : en:00:56:11.284
01:08:30.272 : en:01:08:30.272
01:21:27.465 : en:01:21:27.465
01:38:03.043 : en:01:38:03.043
x264 [info]: frame I:1233Avg QP:14.60size:221640
x264 [info]: frame P:41568 Avg QP:17.09size: 93028
x264 [info]: frame B:99134 Avg QP:18.67size: 32891


3 серия
General
Unique ID : 250747619929564634518084733398626060802 (0xBCA43C2708CF0B64935D2DE5264FCA02)
Complete name : Hatfields.and.McCoys.Part.3.(2012).mkv
Format : Matroska
Format version : Version 2
File size : 6.77 GiB
Duration : 1h 28mn
Overall bit rate : 10.9 Mbps
Movie name : Hatfields.and.McCoys.Part.3.(2012)
Encoded date : UTC 2013-04-29 05:31:52
Writing application : mkvmerge v5.8.0 ('No Sleep / Pillow') built on Sep2 2012 15:37:04
Writing library : libebml v1.2.3 + libmatroska v1.3.0

Video #1
ID : 1
Format : AVC
Format/Info : Advanced Video Codec
Format profile : High@L4.1
Format settings, CABAC : Yes
Format settings, ReFrames : 4 frames
Codec ID : V_MPEG4/ISO/AVC
Duration : 1h 28mn
Bit rate : 10 000 Kbps
Width : 1 920 pixels
Height : 1 080 pixels
Display aspect ratio : 16:9
Frame rate mode : Constant
Frame rate : 23.976 fps
Color space : YUV
Chroma subsampling : 4:2:0
Bit depth : 8 bits
Scan type : Progressive
Bits/(Pixel*Frame) : 0.201
Stream size : 6.08 GiB (90%)
Title : Hatfield..
Writing library : x264 core 130 r2273 b3065e6
Encoding settings : cabac=1 / ref=4 / deblock=1:0:0 / analyse=0x3:0x113 / me=umh / subme=10 / psy=1 / psy_rd=1.00:0.10 / mixed_ref=1 / me_range=32 / chroma_me=1 / trellis=2 / 8x8dct=1 / cqm=0 / deadzone=21,11 / fast_pskip=0 / chroma_qp_offset=-3 / threads=2 / lookahead_threads=1 / sliced_threads=0 / nr=0 / decimate=0 / interlaced=0 / bluray_compat=0 / constrained_intra=0 / bframes=5 / b_pyramid=2 / b_adapt=2 / b_bias=0 / direct=3 / weightb=1 / open_gop=0 / weightp=2 / keyint=240 / keyint_min=23 / scenecut=40 / intra_refresh=0 / rc_lookahead=40 / rc=2pass / mbtree=0 / bitrate=10000 / ratetol=1.0 / qcomp=0.60 / qpmin=0 / qpmax=69 / qpstep=4 / cplxblur=20.0 / qblur=0.5 / vbv_maxrate=62500 / vbv_bufsize=78125 / nal_hrd=none / ip_ratio=1.40 / pb_ratio=1.30 / aq=1:0.80
Language : English
Default : Yes
Forced : No

Audio #2
ID : 2
Format : AC-3
Format/Info : Audio Coding 3
Mode extension : CM (complete main)
Format settings, Endianness : Big
Codec ID : A_AC3
Duration : 1h 28mn
Bit rate mode : Constant
Bit rate : 448 Kbps
Channel(s) : 6 channels
Channel positions : Front: L C R, Side: L R, LFE
Sampling rate : 48.0 KHz
Bit depth : 16 bits
Compression mode : Lossy
Stream size : 285 MiB (4%)
Title : Профессиональный (многоголосый,закадровый) (AlexFilm)
Language : Russian
Default : Yes
Forced : No

Audio #3
ID : 3
Format : AC-3
Format/Info : Audio Coding 3
Mode extension : CM (complete main)
Format settings, Endianness : Big
Codec ID : A_AC3
Duration : 1h 28mn
Bit rate mode : Constant
Bit rate : 448 Kbps
Channel(s) : 6 channels
Channel positions : Front: L C R, Side: L R, LFE
Sampling rate : 48.0 KHz
Bit depth : 16 bits
Compression mode : Lossy
Stream size : 285 MiB (4%)
Title : Любительский (многоголосый,закадровый) (ViruseProject)
Language : Russian
Default : No
Forced : No

Text #4
ID : 4
Format : UTF-8
Codec ID : S_TEXT/UTF8
Codec ID/Info : UTF-8 Plain Text
Title : Russian (forced)
Language : Russian
Default : Yes
Forced : Yes

Menu
00:00:00.000 : en:00:00:00.000
00:20:58.423 : en:00:20:58.423
00:27:07.959 : en:00:27:07.959
00:38:00.319 : en:00:38:00.319
00:47:41.858 : en:00:47:41.858
00:54:29.516 : en:00:54:29.516
01:01:49.038 : en:01:01:49.038
01:11:14.979 : en:01:11:14.979
01:18:03.470 : en:01:18:03.470
01:28:19.210 : en:01:28:19.210
x264 [info]: frame I:1011Avg QP:14.56size:248547
x264 [info]: frame P:31909 Avg QP:17.37size: 98773
x264 [info]: frame B:95023 Avg QP:18.82size: 34389




реклама партнёра


Вернуться к началу
 Профиль  
 
   Похожие торренты   Автор   Торрент   Размер 
В этой теме нет новых непрочитанных сообщений. Маленький большой человек / Little Big Man [драма, приключения, вестерн, военный, история, 1970] BDRip 1080p, Mvo+Avo+Sub

salma3

17 | 1

7.01 ГБ

В этой теме нет новых непрочитанных сообщений. Обманутый / The Beguiled [Драма, мелодрама, вестерн, военный, 1971] BDRip 1080p, Dub+Mvo+Av0+Sub

salma3

3 | 5

11.45 ГБ

В этой теме нет новых непрочитанных сообщений. Император / Emperor [драма, военный, история, 2012] BDRip 1080p, Mvo

Dracon

27 | 4

10.65 ГБ

В этой теме нет новых непрочитанных сообщений. Настоящая женщина / True Women [драма, мелодрама, вестерн, военный, биография, история, 1997] DVDRip, Mvo

salma3

26 | 4

1.37 ГБ

В этой теме нет новых непрочитанных сообщений. Война и Мир / War & Peace (Сезон 1, Серия 1-6 из 6) (Том Харпер) [2016 , Драма, мелодрама, военный, история, экранизация , BDRip 1080p] [MVO] [LostFilm , English ] [DD5.1] + [Subs Rus , Eng]

Враг Нароода

0 | 0

25.85 ГБ

В этой теме нет новых непрочитанных сообщений. Погоня с Дьяволом / Ride with the Devil [Драма, мелодрама, вестерн, военный, 1999] BDRip 720р, Mvo+Sub

salma3

70 | 24

7.07 ГБ

В этой теме нет новых непрочитанных сообщений. Кундун / Kundun [Драма, военный, биография, история, 1997] BDRip 1080p, Mvo+Avo+Sub

salma3

7 | 3

11.17 ГБ


Начать новую тему Ответить на тему  [ 1 сообщение ] 




Для Мосгорсуда, Роскомнадзора и рекламодателей:: mosgorsud-torrent[собачка]yandex.ru