Торрент файл
скачать торрент магнет ссылка Добавлен: 28 апр 2013, 16:04
Размер: 2.34 ГБ
Сидеров: 1
Личеров: 3
Автор

СообщениеДобавлено: 28 апр 2013, 16:05 

Не в сети
Аватара пользователя
Дата регистрации:
19 фев 2013, 23:19
Спасибо: 2 / 3
Сообщения: 5
Демоны Да Винчи / Da Vinci`s Demons [01x01-03] (2013) HDTVRip

Год выпуска: 2013
Страна: США
Жанр: фэнтези, драма, приключения, история
Продолжительность: 3х00:58:00
Перевод: Любительский (двухголосый закадровый)(Alternative Production)

Режиссер: Майкл Дж. Бассетт, Дэвид С. Гойер, Джэми Пэйн, ...

В ролях: Том Райли
Лаура Хэддок
Йен Пири
Блейк Ритсон
Лара Пулвер
Грегг Чиллин
Гера Хилмарсдоттир
Эрос Влахос
Том Бейтман
Эллиот Леви
...

Описание: В мире, где мысль и вера находятся под контролем, один человек борется за то, чтобы сделать знания доступными для всех.

Не рассказанная история трагичной жизни Леонардо Да Винчи раскрывает портрет молодого человека, которого мучает дар гения. Он — еретик, жаждущий раскрыть ложь религии. Бунтарь, стремящийся низвергнуть элитарное общество. Незаконнорожденный сын, требующий от своего отца признания его прав.
Рейтинг
KnightOfTheDarkness

Мнение о пилотном эпизоде «Демоны Да Винчи»

Посмотрев пилотный эпизод «Демоны да Винчи», у меня сложилось позитивное мнение о будущем сериала, который к слову после 1-го эпизода продлили на второй и сезон, благодаря рейтингам.

В сериале речь идет об Леонардо Да Винчи, перекрученная история гения, в которой он живет во время грядущей войны, в которой все должны приспосабливаться, однако у Леонардо очень много целей помимо войны.

Что же касается сюжета, то он очень не плохо положил начало сериалу, сразу виден ряд сюжетных цепочек, которые сериал должен развивать. Но не все понравилось, сериал слегка «извращенный» на мое мнение, а в целом хорошо выстроен. Образ Леонардо далек от идеала и вызывает противоречивые чувства местами, но может на дальнейшую перспективу именно такому образу и нужно быть.

Интересно поставлена теневая борьба между главными городами Италии: Миланом, Римом, Флоренцией и Наполем. В которой несомненно одну из ключевых ролей должен играть Да Винчи.

На роль Леонардо был приглашен Том Райли, и мне показалось, что он слегка переигрывает, но в желании показать себя не откажешь.

Если в целом на все посмотреть, то получилось весьма не плохое начало для сериала, в который положены сюжетные линии и назревает масса вопросов, но есть и свои минусы текущие, которые поправимы разумеется. Будем смотреть, что дальше выйдет, на данном этапе позитивное мнение о сериале.

Трейлер: http://www.youtube.com/watch?v=j2OJE-t3zSQх
Общее
Полное имя : D:\Загрузки торрент\Da.Vinci.Demons.s01.AltPro\Da.Vinci.Demons.s01e01.AltPro.avi
Формат : AVI
Формат/Информация : Audio Video Interleave
Размер файла : 800 Мбайт
Продолжительность : 58 м.
Общий поток : 1897 Кбит/сек
Библиотека кодирования : VirtualDub build 32842/release

Видео
Идентификатор : 0
Формат : MPEG-4 Visual
Профиль формата : Advanced Simple@L5
Параметр BVOP формата : 2
Параметр QPel формата : Нет
Параметр GMC формата : Без точки перехода
Параметр матрицы формата : Default (MPEG)
Режим смешивания : Сжатый битовый поток
Идентификатор кодека : XVID
Идентификатор кодека/Подсказка : XviD
Продолжительность : 58 м.
Битрейт : 1695 Кбит/сек
Ширина : 720 пикселей
Высота : 400 пикселей
Соотношение сторон : 16:9
Частота кадров : 23,976 кадра/сек
Цветовое пространство : YUV
Субдискретизация насыщенности : 4:2:0
Битовая глубина : 8 бит
Тип развёртки : Прогрессивная
Метод сжатия : С потерями
Бит/(Пиксели*Кадры) : 0.245
Размер потока : 715 Мбайт (89%)
Библиотека кодирования : XviD 64

Аудио
Идентификатор : 1
Формат : MPEG Audio
Версия формата : Version 1
Профиль формата : Layer 3
Режим : Joint stereo
Идентификатор кодека : 55
Идентификатор кодека/Подсказка : MP3
Продолжительность : 58 м.
Вид битрейта : Постоянный
Битрейт : 192 Кбит/сек
Каналы : 2 канала
Частота : 48,0 КГц
Метод сжатия : С потерями
Размер потока : 81,0 Мбайт (10%)
Выравнивание : Разделение по промежуткам
Продолжительность промежутка : 42 мс. (1,00 видеокадр)
Время предзагрузки промежутка : 500 мс.


Качество: HDTVRip
Формат: AVI
Видео кодек: XviD
Аудио кодек: AC3
Видео: 720x400 (1.80:1), 23.976 fps, XviD MPEG-4 ~1695 kbps avg, 0.25 bit/pixel
Аудио: 48 kHz, AC3 Dolby Digital, 2/0 (L,R) ch, ~192 kbps





реклама партнёра


Вернуться к началу
 Профиль Отправить личное сообщение  
 
   Похожие торренты   Автор   Торрент   Размер 
В этой теме нет новых непрочитанных сообщений. Демоны да Винчи / Da Vinci's Demons [03х01-10 из 10] (Майкл Дж. Бассетт, Дэвид С. Гойер, Джэми Пэйн) [2015, Драма, приключения, HDTVRip | LostFilm]

Dracon

112 | 48

6.22 ГБ

В этой теме нет новых непрочитанных сообщений. Демоны да Винчи / Da Vinci's Demons [03х01-04 из 10] (Майкл Дж. Бассетт, Дэвид С. Гойер, Джэми Пэйн) [2015, Драма, приключения, HDTVRip | LostFilm]

Dracon

187 | 134

2.34 ГБ

В этой теме нет новых непрочитанных сообщений. Демоны Да Винчи / Da Vinci's Demons (сезон 1-2, серия 1-18 из 18) (Майкл Дж. Бассетт, Дэвид С. Гойер, Джэми Пэйн[) [2013-2014, Драма, приключения, HDTVRip-AVC 1080p] [DD5.1] [MVO] [AlexFilm + Subs Rus,ENG ]

Nikolai.Baranov

1 | 2

52.04 ГБ

В этой теме нет новых непрочитанных сообщений. Демоны да Винчи / Da Vinci's Demons [Season 1-2, episodes 1-18 of 18] (Майкл Дж. Бассетт, Дэвид С. Гойер, Джэми Пэйн) [драма, приключения, 2013-2014] WEB-DLRip, Mvo

Dracon

3 | 5

12.71 ГБ

В этой теме нет новых непрочитанных сообщений. Демоны да Винчи / Da Vinci's Demons (Сезон 3, Серия 1-10 из 10) (Дэвид С. Гойер, Джэми Пэйн) [2015 , Драма, приключения, фэнтези , HDTVRip 720p] [MVO] [AlexFilm , LostFilm , English] + [Subs ENG]

Враг Нароода

0 | 1

15.09 ГБ

В этой теме нет новых непрочитанных сообщений. Демоны Да Винчи / Da Vinci's Demons [S01-03] (Майкл Дж. Бассетт, Дэвид С. Гойер, Пол Вильшурст) [2013-2015, Драма, Приключения, HDTVRip 720p | AlexFilm]

Dracon

16 | 89

49.8 ГБ

В этой теме нет новых непрочитанных сообщений. Демоны Да Винчи / Da Vinci's Demons [03] (Майкл Дж. Бассетт, Дэвид С. Гойер, Пол Вильшурст) [Драма, Приключения, 2015] HDTVRip [Cold Film]

Dracon

1651 | 899

5.16 ГБ


Начать новую тему Ответить на тему  [ 1 сообщение ] 




Для Мосгорсуда, Роскомнадзора и рекламодателей:: mosgorsud-torrent[собачка]yandex.ru