Автор

СообщениеДобавлено: 15 апр 2013, 12:59 

Не в сети
2 Звезды
Аватара пользователя
Дата регистрации:
10 окт 2010, 16:23
Возраст: 61
Торренты: 306
Раздал: 5.92 ПБ 
Скачал: 6.12 ПБ 
Ратио: 0.966
Спасибо: 179 / 0
Сообщения: 323
Откуда: КРАСНОГОРСК
Ганнибал / Hannibal



Год выпуска: 2013-2014
Выпущено: США, Dino De Laurentiis Productions, Doheny Productions Inc., Gaumont International Television
Жанр: Детектив, криминал, драма
Сезон: 1-2
Серии: 1-26
Количество серий в сезоне: 26
Продолжительность: 00:43:00
Озвучка:Профессиональная многоголосая закадровая(Sony Sci Fi)
Субтитры: :Русские, Английские


Режиссер: Гильермо Наварро, Майкл Раймер, Дэвид Слэйд

В ролях: Мадс Миккельсен, Хью Дэнси, Каролин Давернас, Лара Жан Чоростецки, Аарон Абрамс, Лоренс Фишберн, Эттьенн Парк, Скотт Томпсон, Торианна Ли, Демор Барнс


Грэхэм — одаренный профайлер, который вместе с ФБР разыскивает серийного убийцу. Уникальный способ мышления Грэма дает ему удивительную способность глубоко проникаться чувствами другого человека, даже психопата. Он может понять, что ими движет. Но когда ум преследуемого убийцы оказывается слишком сложным, он прибегает к помощи доктора Лектера, одного из ведущих психиатрических умов в стране.

Качество 1 сезона:WEB-DLRip-AVC 1080p
Формат: MPEG-4
Видео кодек: H264
Видео: 5209Кбит/сек,1920х1080(16.9),в 25.000кадр/сек,AVC(Baseline@L5.0)(1Ref Frames)
Аудио кодек: AAC
Аудио Russian Dolby Digital 5.1:456Кбит/сек,44.1КГц,6каналов,AAC,(Version4)(LC)
[hr]
Качество 2 сезона:WEB-DLRip-AVC 1080p
Формат: MPEG-4
Видео кодек: H264
Видео: 5945Кбит/сек,1920х1080(16.9),в 25.000кадр/сек,AVC(Baseline@L4.0)(1Ref Frames)
Аудио кодек: AAC
Аудио Russian Dolby Digital 5.1:251Кбит/сек,48.0КГц,6каналов,AAC,(Version4)(LC)


Звуковая дорожка сделана путем наложения чистого голоса озвучивателей на центральный канал оригинальной дорожки. Качество идентично звуковой дорожке.




01. Аперитив / Apéritif
02. Амюз буш / Amuse-Bouche
03. Густой суп / Potage
04. Яичница / Œuf
05. Устрицы / Coquilles
06. Основное блюдо / Entrée
07. Шербет / Sorbet
08. Сыр / Fromage
09. Рюмка кальвадоса / Trou Normand
10. Холодные закуски / Buffet Froid
11. Жаркое / Rôti
12. Вторые блюда / Relevés
13. Пикантное блюдо / Savoureux




01. Кайсэ’ки / Kaiseki
02. Сакэзуки / Sakizuki
03. Хассун / Hassun
04. Такиявасэ / Takiawase
05. Микозуке / Mukozuke
06. Футамоно / Futamono
07. Якимоно / Yakimono
08. Сузакана / Su-zakana
09. Шизакана / Shiizakana
10. Нака-Чоко / Naka-Choko
11. Ко Но Моно / Ko No Mono
12. Томеван / Tomewan
13. Мизумоно / Mizumono



Общее
Полное имя : D:\Hannibal_2013_S01_RUS[Sony_Sci_Fi]_DD5.1_x264_Nikolai.Baranov_WEB-DLRip-AVC_(1080p)\Hannibal_2013_S01E01_RUS[Sony_Sci_Fi]_DD5.1_x264_Nikolai.Baranov_WEB-DLRip-AVC_(1080p).mp4
Формат : MPEG-4
Профиль формата : Base Media
Идентификатор кодека : isom
Размер файла : 1,70 Гбайт
Продолжительность : 42 м.
Режим общего битрейта : Переменный
Общий поток : 5669 Кбит/сек
Дата кодирования : UTC 2013-04-14 07:33:55
Дата пометки : UTC 2013-04-14 07:33:55
Программа кодирования : Lavf51.12.1

Видео
Идентификатор : 1
Формат : AVC
Формат/Информация : Advanced Video Codec
Профиль формата : Baseline@L5.0
Параметр CABAC формата : Нет
Параметр ReFrames формата : 1 кадр
Параметр GOP формата : M=1, N=12
Идентификатор кодека : avc1
Идентификатор кодека/Информация : Advanced Video Coding
Продолжительность : 42 м.
Вид битрейта : Переменный
Битрейт : 5209 Кбит/сек
Максимальный битрейт : 7500 Кбит/сек
Ширина : 1920 пикселей
Высота : 1080 пикселей
Соотношение сторон : 16:9
Режим частоты кадров : Постоянный
Частота кадров : 25,000 кадров/сек
Частота кадров в оригинале : 24,000 кадра/сек
Цветовое пространство : YUV
Субдискретизация насыщенности : 4:2:0
Битовая глубина : 8 бит
Тип развёртки : Прогрессивная
Бит/(Пиксели*Кадры) : 0.100
Размер потока : 1,56 Гбайт (92%)
Дата кодирования : UTC 2013-04-14 07:33:55
Дата пометки : UTC 2013-04-14 07:33:55

Аудио
Идентификатор : 2
Формат : AAC
Формат/Информация : Advanced Audio Codec
Профиль формата : LC
Идентификатор кодека : 40
Продолжительность : 42 м.
Вид битрейта : Переменный
Битрейт : 456 Кбит/сек
Каналы : 6 каналов
Расположение каналов : Front: L C R, Side: L R, LFE
Частота : 44,1 КГц
Метод сжатия : С потерями
Размер потока : 140 Мбайт (8%)
Дата кодирования : UTC 2013-04-14 07:33:55
Дата пометки : UTC 2013-04-14 07:33:55
[/b][/color]


General
Полное имя : D:\С Е Р И А Л Ы\Ганнибал\Hannibal_S01-S02_RUS[Sony_Sci_Fi]_DD5.1_x264_Nikolai.Baranov_WEB-DLRip-AVC_(1080p)\S02\Hannibal_2014_S01E01_RUS[Sony_Sci_Fi]_DD5.1_x264_Nikolai.Baranov_WEB-DLRip-AVC_(1080p).mp4
Формат : MPEG-4
Профиль формата : Base Media
Идентификатор кодека : isom
Размер файла : 1.87 GiB
Продолжительность : 43mn 11s
Режим общего битрейта : Variable
Общий поток : 6 200 Kbps
Название фильма : Hannibal.S02E01.Kaiseki.WEB-DL.1080p.Rus.Eng.AlexFilm
Дата кодирования : UTC 2014-03-13 19:15:24
Дата пометки : UTC 2014-03-13 19:15:24
Программа кодирования : Lavf51.12.1

Video
Идентификатор : 1
Формат : AVC
Формат/Информация : Advanced Video Codec
Профиль формата : Baseline@L4.0
Параметр CABAC формата : No
Параметр ReFrames формата : 1 frame
Параметр GOP формата : M=1, N=12
Идентификатор кодека : avc1
Идентификатор кодека/Информация : Advanced Video Coding
Продолжительность : 43mn 11s
Битрейт : 5 945 Kbps
Ширина : 1 920 pixels
Высота : 1 080 pixels
Соотношение сторон : 16:9
Режим частоты кадров : Constant
Частота кадров : 25.000 fps
Цветовое пространство : YUV
Субдискретизация насыщенности : 4:2:0
Битовая глубина : 8 bits
Тип развёртки : Progressive
Бит/(Пиксели*Кадры) : 0.115
Размер потока : 1.79 GiB (96%)
Язык : English
Дата кодирования : UTC 2014-03-13 19:15:24
Дата пометки : UTC 2014-03-13 19:15:24

Audio
Идентификатор : 2
Формат : AAC
Формат/Информация : Advanced Audio Codec
Профиль формата : LC
Идентификатор кодека : 40
Продолжительность : 43mn 11s
Вид битрейта : Variable
Битрейт : 251 Kbps
Каналы : 6 channels
Расположение каналов : Front: L C R, Side: L R, LFE
Частота : 48.0 KHz
Метод сжатия : Lossy
Размер потока : 77.5 MiB (4%)
Дата кодирования : UTC 2014-03-13 19:15:24
Дата пометки : UTC 2014-03-13 19:15:24












1 сезон

2 сезон


1. Открыть торрент
2. Снять галки с тех файлов торрента, которые мы не хотим закачивать. Оставляем только на нужных нам файлах (файле).
3. Нажать О.К.

В клиенте utorrent

Инструкция

1) Открыть торрент


2) Снять галки с тех файлов торрента, которые мы не хотим закачивать:

* либо вручную, снимая с каждого файла галку( скрин №1)
* либо, нажав кнопку "Снять метки (Select None)", сняв сразу со всех файлов(скрин №2)
№1

№2

Оставляем только на нужных нам файлах (файле).

3)Нажать О.К





Внимание!!! 31.05. 2014. РАЗДАЧА ОБНОВЛЕНА.ФИНАЛ СЕЗОНА.ОБНОВИТЕ ТОРЕНТ ФАЙЛ.ПРИЯТНОГО ПРОСМОТРА .

Релиз от: Nikolai.Baranov







_________________

Легко быть оптимистом, когда судьба не валит с ног тяжелыми ударами, а лишь иногда легонько шлепает по заднице.



реклама партнёра


Вернуться к началу
 Профиль Отправить личное сообщение  
 
   Похожие торренты   Автор   Торрент   Размер 
В этой теме нет новых непрочитанных сообщений. Ганнибал / Hannibal (Сезон 3, Серии 1-13 из 13) (Гильермо Наварро, Майкл Раймер, Дэвид Слэйд) [2015, Детектив, криминал, драма , HDTVRip , WEB-DLRip-AVC 1080p] [DD5.1] [MVO] [Sony Sci Fi ,AlexFilm,NewStudio , BaibaKo , Jaskier + Subs Ru

Враг Нароода

7 | 6

38.56 ГБ

В этой теме нет новых непрочитанных сообщений. Ганнибал / Hannibal (Сезон 3, Серия 1-11 из 13) (Гильермо Наварро, Майкл Раймер, Дэвид Слэйд) [2015, Детектив, криминал, драма , HDTVRip , WEB-DLRip-AVC 1080p] [DD5.1] [MVO] [Sony Sci Fi ,AlexFilm,NewStudio , BaibaKo , Jaskier + Subs Ru

Враг Нароода

14 | 16

32.97 ГБ

В этой теме нет новых непрочитанных сообщений. Ганнибал / Hannibal [03х01-13 из 13] (Гильермо Наварро, Майкл Раймер, Дэвид Слэйд) [детектив, криминал, драма, 2015] HDTVRip 1080p [Sony Sci Fi]

Dracon

73 | 149

42.65 ГБ

В этой теме нет новых непрочитанных сообщений. Ганнибал / Hannibal [03х01-13 из 13] (Гильермо Наварро, Майкл Раймер, Дэвид Слэйд) [детектив, криминал, драма, 2015] HDTVRip 720p [Sony Sci Fi]

Dracon

215 | 245

15.36 ГБ

В этой теме нет новых непрочитанных сообщений. Ганнибал / Hannibal [03х01-11 из 13] (Гильермо Наварро, Майкл Раймер, Дэвид Слэйд) [детектив, криминал, драма, 2015] HDTVRip 720p [Sony Sci Fi]

Dracon

160 | 178

12.5 ГБ

В этой теме нет новых непрочитанных сообщений. Ганнибал / Hannibal [Season 3 episode 1-11,13] (Гильермо Наварро, Майкл Раймер, Дэвид Слэйд) [Детектив, триллер, криминал, драма, 2015] HDTVRip [Sony SciFi]

Dracon

12 | 22

6.65 ГБ

В этой теме нет новых непрочитанных сообщений. Ганнибал / Hannibal [Season 3 episode 1-13] (Гильермо Наварро, Майкл Раймер, Дэвид Слэйд) [Детектив, триллер, криминал, драма, 2015] HDTVRip [Sony SciFi]

Dracon

600 | 413

7.13 ГБ


 [ 1 сообщение ] 




Для Мосгорсуда, Роскомнадзора и рекламодателей:: mosgorsud-torrent[собачка]yandex.ru