Торрент файл
скачать торрент магнет ссылка Добавлен: 14 апр 2013, 18:01
Размер: 4.39 ГБ
Сидеров: 12
Личеров: 2
Статус: (salma3)
Автор

СообщениеДобавлено: 14 апр 2013, 18:01 

В сети
Супермодератор
Аватара пользователя
Дата регистрации:
15 фев 2012, 16:44
Возраст: 27
Спасибо: 5143 / 2090
Сообщения: 17475

Город Хищниц / Cougar Town

Год выпуска: 2013
Страна: США
Жанр:комедия
Продолжительность: 15 х ~ 00:22:00
Перевод: Профессиональный (двухголосый закадровый) - NewStudio
Субтитры: нет
Режиссер: Билл Лоуренс, Кевин Бигель

В ролях: Кортни Кокс, Криста Миллер, Бизи Филиппс, Брайан Ван Холт, Джош Хопкинс, Иэн Гомес, Дэн Берд, Скот Фоли и др.

Описание: Сериал Cougar Town рассказывает о недавно разведенной 40-летней Джулс Кобб и ее сыне-подростке Трэвисе, живущих в небольшом городке в штате Флорида. Этот город можно охарактеризовать одним словом – Cougars. Это и название популярной футбольной команды местной школы, и … немалое количество разведенных женщин среднего возраста, ищущих парней помоложе, чтобы скрасить свой досуг. Джулс не хочет стать похожей на них, но после прошедшего развода и своих немолодых лет она хочет большего для своей личной жизни. С помощью лучшей подруги Элли и коллеги по работе Лори она пытается вспомнить, как же это – ходить на свидания и знакомиться с мужчинами.



Перевод: Фиона
Озвучка: Юлия Котурбаш, Артем Мирон
Работа со звуком: Cherry
Рип видео: koss

Качество: WEB-DLRip
Формат: AVI
Видео: XviD, 1591 Кбит/с, 720x400
Аудио rus: MP3, 2 ch, 128 Кбит/с
Аудио eng: MP3, 2 ch, 128 Кбит/с

Добавлена 14-ая и 15-ая серии. Сезон полностью.


01. Тоскливое воскресенье
02. I Need to Know
03. Между двумя мирами / Between Two Worlds
04. I Should Have Known It
05. Настичь мечту / Runnin' Down a Dream
06. Мятежность / Restless
07. Runnin Down a Dream
08. Make It Better
09. You Tell Me
10. Ты мне скажи / You Tell Me
11. Спасительная благодать / Saving Grace
Формат: AVI
Формат/Информация: Audio Video Interleave
Размер файла: 300 Мбайт
Продолжительность: 22 м.
Общий поток: 1861 Кбит/сек
Программа кодирования: VirtualDubMod 1.5.10.2 (build 2540/release)
Библиотека кодирования: VirtualDubMod build 2540/release

Видео
Идентификатор: 0
Формат: MPEG-4 Visual
Профиль формата: Advanced Simple@L5
Параметр BVOP формата: 2
Параметр QPel формата: Нет
Параметр GMC формата: Без точки перехода
Параметр матрицы формата: Default (MPEG)
Идентификатор кодека: XVID
Идентификатор кодека/Подсказка: XviD
Продолжительность: 22 м.
Битрейт: 1591 Кбит/сек
Ширина: 720 пикс.
Высота: 400 пикс.
Соотношение сторон: 16:9
Частота кадров: 23,976 кадр/сек
Цветовое пространство: YUV
Подвыборка цветности: 4:2:0
Битовая глубина: 8 бит
Тип развёртки: Прогрессивная
Метод сжатия: С потерями
Бит/(Пиксели*Кадры): 0.230
Размер потока: 256 Мбайт (85%)
Библиотека кодирования: XviD 65

Аудио #1
Идентификатор: 1
Формат: MPEG Audio
Версия формата: Version 1
Профиль формата: Layer 3
Режим: Joint stereo
Идентификатор кодека: 55
Идентификатор кодека/Подсказка: MP3
Продолжительность: 22 м.
Вид битрейта: Постоянный
Битрейт: 128 Кбит/сек
Каналы: 2 канала
Частота: 48,0 КГц
Метод сжатия: С потерями
Размер потока: 20,6 Мбайт (7%)
Выравнивание: Соединение по промежуткам
Продолжительность промежутка: 42мс. (1,00 видеокадр)
Время предзагрузки промежутка: 504 ms

Аудио #2
Идентификатор: 2
Формат: MPEG Audio
Версия формата: Version 1
Профиль формата: Layer 3
Режим: Joint stereo
Расширение режима: MS Stereo
Идентификатор кодека: 55
Идентификатор кодека/Подсказка: MP3
Продолжительность: 22 м.
Вид битрейта: Постоянный
Битрейт: 128 Кбит/сек
Каналы: 2 канала
Частота: 48,0 КГц
Метод сжатия: С потерями
Размер потока: 20,6 Мбайт (7%)
Выравнивание: Соединение по промежуткам
Продолжительность промежутка: 42мс. (1,00 видеокадр)
Время предзагрузки промежутка: 504 ms


Релиз от:




реклама партнёра


Вернуться к началу
 Профиль Отправить личное сообщение  
 
   Похожие торренты   Автор   Торрент   Размер 
В этой теме нет новых непрочитанных сообщений. Город Хищниц / Cougar Town [06x01-10 из 13] (Билл Лоуренс, Кевин Бигель) [2015, Комедия, WEB-DL 720p | NewStudio]

Nickolas3435

41 | 16

7.15 ГБ

В этой теме нет новых непрочитанных сообщений. Город Хищниц / Cougar Town [S05] [Комедия, 2014] WEB-DLRip, Mvo [LostFilm]

salma3

80 | 28

4.1 ГБ

В этой теме нет новых непрочитанных сообщений. Город хищниц / Cougar Town [S01-06] [Комедия, 2009-2015] WEB-DLRip, Mvo [LostFilm]

salma3

36 | 38

29.77 ГБ

В этой теме нет новых непрочитанных сообщений. Город Хищниц / Cougar Town [06x01-12 из 13] (Майкл Джеймс МакДональд, Джон Путч, Гэйл Манкусо) [2015, Комедия, WEB-DL 1080p | NewStudio]

Nickolas3435

0 | 6

10.57 ГБ

В этой теме нет новых непрочитанных сообщений. Милые обманщицы / Pretty Little Liars / 4 сезон 0-18 серии из 24 [триллер, мелодрама, детектив, 2013] WEB-DLRip, Dvo [NewStudio]

salma3

4 | 6

9.27 ГБ

В этой теме нет новых непрочитанных сообщений. Бруклин 9-9 / Brooklyn Nine-Nine / 2 сезон 1-22 серии из 22 [комедия, 2014] WEB-DLRip, Dvo [NewStudio]

salma3

67 | 60

5.32 ГБ

В этой теме нет новых непрочитанных сообщений. Бывает и хуже / The Middle / 7 сезон 1-24 серии из 24 [Комедия, 2015] WEB-DLRip, Mvo [NewStudio]

salma3

82 | 41

5.83 ГБ


Начать новую тему Ответить на тему  [ 1 сообщение ] 




Для Мосгорсуда, Роскомнадзора и рекламодателей:: mosgorsud-torrent[собачка]yandex.ru