Торрент файл
скачать торрент магнет ссылка Добавлен: 08 апр 2013, 06:14
Размер: 992.59 МБ
Сидеров: 1
Личеров: 2
Автор

СообщениеДобавлено: 08 апр 2013, 06:14 

Не в сети
Администратор
Дата регистрации:
08 апр 2010, 18:00
Спасибо: 1075 / 220
Сообщения: 17131

Информация о фильме
Название: Реальные пацаны
Год выхода: 2013
Жанр:Комедийный телесериал
Режиссер: Жанна Кадникова
В ролях: Николай Наумов, Антон Богданов, Владимир Селиванов, Станислав Тляшев, Зоя Бербер, Игорь Ознобихин, Марина Федункив, Валентина Мазунина, Алексей Базанов, Армен Бежанян, Мария Шекунова

О фильме:
Пацаны в Москве! Колян поступает в ВУЗ, Лера ждет в гости свою старую московскую подругу Аньку, а Антоха и Вован покупают машину и собираются остановиться у Коляна. Благодаря их совместным стараниям Лера и Анька оказываются запертыми в квартире, а Колян и пацаны вместе едут в институт.



Страна: Россия, Гуд Стори Медиа
Продолжительность:3х ~ 00:23:00
Перевод: Не требуется

Файл
Кодек: XviD
Качество: WEBRip
Видео:XviD ,720x400,~1750 kb/s
Звук: MP3, 44.1 KHz, 2 ch, 128 Kbps

Формат : AVI
Формат/Информация : Audio Video Interleave
Размер файла : 327 Мбайт
Продолжительность : 24 м.
Общий поток : 1882 Кбит/сек
Программа кодирования : Lavf53.4.0

Видео
Идентификатор : 0
Формат : MPEG-4 Visual
Профиль формата : Simple@L1
Параметр BVOP формата : Нет
Параметр QPel формата : Нет
Параметр GMC формата : Без точки перехода
Параметр матрицы формата : Default (H.263)
Идентификатор кодека : XVID
Идентификатор кодека/Подсказка : XviD
Продолжительность : 24 м.
Битрейт : 1742 Кбит/сек
Ширина : 720 пикселей
Высота : 400 пикселей
Соотношение сторон : 16:9
Частота кадров : 25,000 кадров/сек
Цветовое пространство : YUV
Субдискретизация насыщенности : 4:2:0
Битовая глубина : 8 бит
Тип развёртки : Прогрессивная
Метод сжатия : С потерями
Бит/(Пиксели*Кадры) : 0.242
Размер потока : 303 Мбайт (93%)
Библиотека кодирования : Lavc53.7.0

Аудио
Идентификатор : 1
Формат : MPEG Audio
Версия формата : Version 1
Профиль формата : Layer 3
Режим : Joint stereo
Расширение режима : MS Stereo
Идентификатор кодека : 55
Идентификатор кодека/Подсказка : MP3
Продолжительность : 24 м.
Вид битрейта : Постоянный
Битрейт : 128 Кбит/сек
Каналы : 2 канала
Частота : 44,1 КГц
Метод сжатия : С потерями
Размер потока : 22,3 Мбайт (7%)
Выравнивание : Соединение по промежуткам
Продолжительность промежутка : 26 мс. (0,65 видеокадр)
Библиотека кодирования : LAME3.97






реклама партнёра


Вернуться к началу
 Профиль Отправить личное сообщение  
 
   Похожие торренты   Автор   Торрент   Размер 
В этой теме нет новых непрочитанных сообщений. Реальные пацаны [7 сезон / 1-20 из 20] [Комедийный телесериал, 2014] WEB-DLRip

Dracon

35 | 41

6.13 ГБ

В этой теме нет новых непрочитанных сообщений. Реальные пацаны [07х01-20 из 20] (Жанна Кадникова) [Комедийный телесериал, 2015] WEB-DL 720p

Dracon

140 | 201

9.78 ГБ

В этой теме нет новых непрочитанных сообщений. Реальные пацаны [7 сезон 1-20 серия из 20] (Жанна Кадникова) [Комедийный телесериал, 2015] SATRip

Dracon

896 | 463

5.97 ГБ

В этой теме нет новых непрочитанных сообщений. Битва за Севастополь [Серии 1-4 из 4] (Сергей Мокрицкий) [Военный, ВОВ, драма, реальные события, 2015] WEBRip

Dracon

17 | 3

2.32 ГБ

В этой теме нет новых непрочитанных сообщений. Реальные воспоминания международного убийцы / True Memoirs of an International Assassin [боевик, комедия, 2016] WEBRip 1080р, Mvo

salma3

887 | 101

4.03 ГБ

В этой теме нет новых непрочитанных сообщений. Реальные воспоминания международного убийцы / True Memoirs of an International Assassin [боевик, комедия, 2016] WEBRip 720р, Mvo

salma3

627 | 68

3.33 ГБ

В этой теме нет новых непрочитанных сообщений. Груз [01-24 из 24] [Боевик, криминал, реальные события, 2013] SATRip

Ανδρέας


Начать новую тему Ответить на тему  [ 1 сообщение ] 




Для Мосгорсуда, Роскомнадзора и рекламодателей:: mosgorsud-torrent[собачка]yandex.ru