Торрент файл
скачать торрент магнет ссылка Добавлен: 01 апр 2013, 10:20
Размер: 4.36 ГБ
Сидеров: 27
Личеров: 9
Автор

СообщениеДобавлено: 01 апр 2013, 10:20 

Не в сети
Зам. Админа
Аватара пользователя
Дата регистрации:
02 дек 2010, 12:39
Спасибо: 12623 / 214
Сообщения: 28012
Страна: Германия
Жанр: драма, военный
Год выпуска: 2013 (1 сезон)

Продолжительность: 01:30:33 + 01:26:08 + 01:32:30

Перевод: Субтитры .srt (отдельно) - автор kon2011

Режиссер: Филипп Кадельбах / Philip Kadelbach

В ролях: Фолькер Брух (Wilhelm Winter), Том Шиллинг (Friedhelm Winter), Катарина Шюттлер (Greta), Людвиг Трепте (Viktor Goldstein), Мириам Штайн (Charlotte), Марк Вашке (Dorn), Генриетта Рихтер-Роль (Hildegard), Готц Шуберт (Dr. Jahn), Кристиана Пауль (Lilja), Сильвестр Грот (Hiemer), Алина Левшин (Alina), Лукас Грегорович (Jerzy)

Описание:
Трехсерийный немецкий телефильм, показанный с 18 по 20 Марта 2013 года по второму каналу немецкого телевидения (ZDF) и первому каналу австрийской телерадиокомпании (ORF). Фильм посмотрело более 7 миллионов телезрителей Германии и Австрии.

Пятеро героев фильма - 21-летний офицер Вильгельм, его 19-летний брат Фридхельм, 20-летние Шарлотта, Виктор и Грета - встречаются последний раз вместе в Берлине летом 1941 года. Вильгельм и Фридхельм отправятся в составе вермахта на Восточный фронт, Шарлотта добровольно запишется медсестрой в военно-полевой госпиталь. Грета хочет стать певицей. Фридхельм предсказывает, что война принесет им самые худшие дни на короткий период. Даже Рождество 1941 года они планируют встретить в Берлине. Но только после окончания войны в 1945 году лишь трое оставшихся в живых смогут встретить этот праздник вместе.
Бюджет фильма - 14 миллионов евро. Основан на рельных исторических фактах с использованием документальной кинохроники. Съемки проходили в Латвии, Литве и Германии. В фильме участвовало 2000 человек массовки и использовано 50000 холостых патронов.


Рейтинг

imdb.com: 8.20 (556)



Качество видео: HDRip | sample 1
Исходник: BDRip 720
Формат видео: AVI
Видео 1: 688x384 (1.79:1), 25 fps, XviD build 65 ~1905 kbps avg, 0.29 bit/pixel
Видео 2: 688x384 (1.79:1), 25 fps, XviD build 65 ~2022 kbps avg, 0.31 bit/pixel
Видео 3: 688x384 (1.79:1), 25 fps, XviD build 65 ~1857 kbps avg, 0.28 bit/pixel
Аудио: AC3; 384 Kbps; CBR; 6 ch; 16 bit

Бюджет фильма - 14 миллионов евро. Основан на рельных исторических фактах с использованием документальной кинохроники. Съемки проходили в Латвии, Литве и Германии. В фильме участвовало 2000 человек массовки и использовано 50000 холостых патронов.

Трилогия вызвала бурное обсуждение в германских и польских СМИ по нескольким пунктам:
1) военные историки усмотрели в фильме ряд неточностей, таких как "в 1941 году не использовался пулемет MG-42", "в бою за телеграф советские солдаты используют немецкие "Панцерфауст 30", которые еще не были созданы к июлю 1943 года", "Бои происходят под Курском, в городе Курчатов, основанном в 1968 году и названном в честь физика Игоря Курчатова", "нападающие немцы прячутся за разбитым автомобилем Москвич-401, сделанным после войны";
2) герои фильма слишком часто встречаются "случайно" в ходе войны, хотя рельно имели шанс сделать это только после ее окончания. Возвращение героини Лилии вообще малореалистично.
3) все пятеро героев фильма выглядят очень современными, не отражая образы тогдашней эпохи авторитризма и закрытости III Рейха.
4) Страдания немцев в фильме несколько переоценены, в то время как страдания евреев, русских, украинцев и поляков принижены. Судьба советских военнопленных (2 млн. погибло в немецком плену) вообще не показана. Антисемитизм солдат польского сопротивления "Армии Крайовой" и пьянство, насилие и мародерство со стороны советских солдат преувеличены, что вызвало шквал протестов с польской стороны (по первому пункту) - посла Польши в Берлине и директора крупнейшей польской телекомпании TVP.
Тем не менее, телесериал, по общему мнению, не путает причину и следствие, и вообще не оспаривает ответственность нацистской Германии за Холокост и ее военные преступления во время Второй мировой войны.


General
Complete name: E:ФильмыНаши матери, наши отцы_[youtracker]Unsere.muetter.unsere.vaeter.e01..avi
Format: AVI
Format/Info: Audio Video Interleave
File size: 1.45 GiB
Duration: 1h 30mn
Overall bit rate: 2 299 Kbps
Writing application: VirtualDubMod 1.5.10.3 | http://www.virtualdub-fr.org || (build 2550/release)
Writing library: VirtualDubMod build 2550/release

Video
ID: 0
Format: MPEG-4 Visual
Format profile: Advanced Simple@L5
Format settings, BVOP: 2
Format settings, QPel: No
Format settings, GMC: No warppoints
Format settings, Matrix: Custom
Codec ID: XVID
Codec ID/Hint: XviD
Duration: 1h 30mn
Bit rate: 1 906 Kbps
Width: 688 pixels
Height: 384 pixels
Display aspect ratio: 16:9
Frame rate: 25.000 fps
Color space: YUV
Chroma subsampling: 4:2:0
Bit depth: 8 bits
Scan type: Progressive
Compression mode: Lossy
Bits/(Pixel*Frame): 0.289
Stream size: 1.21 GiB (83%)
Writing library: XviD 65

Audio
ID: 1
Format: AC-3
Format/Info: Audio Coding 3
Mode extension: CM (complete main)
Format settings, Endianness: Big
Codec ID: 2000
Duration: 1h 30mn
Bit rate mode: Constant
Bit rate: 384 Kbps
Channel(s): 6 channels
Channel positions: Front: L C R, Side: L R, LFE
Sampling rate: 48.0 KHz
Bit depth: 16 bits
Compression mode: Lossy
Stream size: 249 MiB (17%)
Alignment: Split accross interleaves
Interleave, duration: 40 ms (1.00 video frame)
Interleave, preload duration: 500 ms



1. Другое время / Eine andere Zeit
2. Другая война / Ein anderer Krieg
3. Другая страна / Ein anderes Land

00:00:42,550 --> 00:00:46,311
"Говорят, что вокруг тебя все затихает

3
00:00:46,991 --> 00:00:49,192
в минуту твоей смерти."

4
00:00:53,593 --> 00:00:55,633
В укрытие!

5
00:01:07,796 --> 00:01:11,437
- Стрелять только по моей команде.
- Но они же совсем близко.

6
00:01:11,597 --> 00:01:13,397
По моей команде!

7
00:01:19,639 --> 00:01:22,679
"Это Фридхельм, мой брат."

8
00:01:24,360 --> 00:01:26,840
"И я ничем не могу ему помочь."

9
00:01:34,782 --> 00:01:39,783
НАШИ МАТЕРИ, НАШИ ОТЦЫ
Первая серия: ДРУГОЕ ВРЕМЯ

10
00:01:43,444 --> 00:01:45,685
ИЮНЬ 1941 года
"Полгода назад мы попрощались в Берлине

11
00:01:45,845 --> 00:01:47,965
с нашими родителями."

12
00:01:48,125 --> 00:01:50,086
"А прошла будто целая жизнь."




реклама партнёра


Вернуться к началу
 Профиль  
 
   Похожие торренты   Автор   Торрент   Размер 
В этой теме нет новых непрочитанных сообщений. Отцы и дочери / Fathers and Daughters [Драма, 2015] HDRip, dvo

Dracon

217 | 9

1.37 ГБ

В этой теме нет новых непрочитанных сообщений. Крестные отцы / Compadres [Боевик, комедия, 2016] HDRip-AVC, Dvo

salma3

124 | 44

1.46 ГБ

В этой теме нет новых непрочитанных сообщений. Крестные отцы / Compadres [Боевик, комедия, 2016] HDRip, Dvo

salma3

80 | 31

1.46 ГБ

В этой теме нет новых непрочитанных сообщений. Навес / Canopy (Аарон Уилсон) [2013, Драма, приключения, военный, HDRip] avo

Dracon

1264 | 57

1.48 ГБ

В этой теме нет новых непрочитанных сообщений. Кафе «Мадрас» / Madras Cafe [Боевик, триллер, драма, военный, 2013] HDRip, Mvo [SDI Media]

salma3

108 | 32

1.46 ГБ

В этой теме нет новых непрочитанных сообщений. Три отца лучше, чем ни одного / Drei Väter sind besser als keiner (Тиль Францен /Till Franzen) [2016г., Германия, драма, HDTVRip] sub

Alfredovich

1 | 0

643.98 МБ

В этой теме нет новых непрочитанных сообщений. Отцы [01-12 из 12] [Боевик, драма, криминал, 2016] SATRip

salma3

1028 | 462

6.47 ГБ


Начать новую тему Ответить на тему  [ 1 сообщение ] 




Для Мосгорсуда, Роскомнадзора и рекламодателей:: mosgorsud-torrent[собачка]yandex.ru