Торрент файл
скачать торрент магнет ссылка Добавлен: 27 мар 2013, 12:30
Размер: 2.91 ГБ
Сидеров: 60
Личеров: 5
Автор

СообщениеДобавлено: 27 мар 2013, 12:30 

Не в сети
Зам. Админа
Аватара пользователя
Дата регистрации:
02 дек 2010, 12:39
Спасибо: 12460 / 214
Сообщения: 27968
Год выпуска: 2012
Выпущено:Украина /Film.UA

Жанр:драма, военный
Продолжительность: 00:49:00 + 00:50:26 + 00:50:13 + 00:51:00

Перевод: не требуется
Оригинальная аудиодорожка: русский
Субтитры: нет

Режиссер: Татьяна Ходаковская

В ролях: Богдан Бенюк, Матвей Зубалевич, Александра Тюфтей, Наталья Бузько, Кирилл Полухин, Алексей Шемес, Валентин Касьян, Игорь Гнездилов, Эдуард Безродный, Борис Георгиевский...

Описание: Во время войны на оккупированной территории организован фильтрационный немецкий лагерь «Надежда», где проводят опыты над детьми. Особой ценностью считаются близнецы — самый ценный материал для опытов. И когда из лагеря удается бежать одному из близнецов, немцы поднимают тревогу, пытаясь отыскать сбежавшего мальчишку. Это усложняет жизнь и жителям ближайшего села, и партизанскому отряду, и даже местным полицаям. В центре развития событий жизнь маленького Пети и трогательная история любви молодой пары — полицая Андрея и дочки старосты Нины. Герои раз за разом сталкиваются со смертью близких, противостоянием, недоверием и обманом. Те, кто еще вчера были друзьями, становятся самыми опасными врагами, а те, кому вчера не подали бы руки, откроются с новой стороны.






Качество видео: DVDRip [DVD9 R5]
Формат видео: AVI

Видео: 720x400 (16:9), XviD1873 Кбит/сек25,000 fps / Бит/(Пиксели*Кадры): 0.260
Аудио: Dolby Digital AudioRussian192 kbps2.0 / 48 kHz

Раздача от:

Общее
Полное имя: Angely.voiny.2012.O.DVDRip_[Youtracker]_by_avproh1.avi
Формат: AVI
Формат/Информация: Audio Video Interleave
Размер файла: 727 Мбайт
Продолжительность: 49 м.
Общий поток: 2075 Кбит/сек
Программа кодирования: VirtualDubMod 1.5.10.3 | http://www.virtualdub-fr.org || (build 2550/release)
Библиотека кодирования: VirtualDubMod build 2550/release

Видео
Идентификатор: 0
Формат: MPEG-4 Visual
Профиль формата: Advanced Simple@L5
Параметр BVOP формата: 1
Параметр QPel формата: Нет
Параметр GMC формата: Без точки перехода
Параметр матрицы формата: Выборочная
Идентификатор кодека: XVID
Идентификатор кодека/Подсказка: XviD
Продолжительность: 49 м.
Битрейт: 1873 Кбит/сек
Ширина: 720 пикселей
Высота: 400 пикселей
Соотношение сторон: 16:9
Частота кадров: 25,000 кадров/сек
Цветовое пространство: YUV
Субдискретизация насыщенности: 4:2:0
Битовая глубина: 8 бит
Тип развёртки: Прогрессивная
Метод сжатия: С потерями
Бит/(Пиксели*Кадры): 0.260
Размер потока: 657 Мбайт (90%)
Библиотека кодирования: XviD 65

Аудио
Идентификатор: 1
Формат: AC-3
Формат/Информация: Audio Coding 3
Расширение режима: CM (complete main)
Параметр Endianness формата: Big
Идентификатор кодека: 2000
Продолжительность: 49 м.
Вид битрейта: Постоянный
Битрейт: 192 Кбит/сек
Каналы: 2 канала
Расположение каналов: Front: L R
Частота: 48,0 КГц
Битовая глубина: 16 бит
Метод сжатия: С потерями
Размер потока: 67,3 Мбайт (9%)
Выравнивание: Разделение по промежуткам
Продолжительность промежутка: 40мс. (1,00 видеокадр)
Время предзагрузки промежутка: 500мс.







реклама партнёра


Вернуться к началу
 Профиль  
 
   Похожие торренты   Автор   Торрент   Размер 
В этой теме нет новых непрочитанных сообщений. Хроники вьетнамской войны / 84C MoPic [Драма, военный, 1989] DVDRip, Mvo

salma3

39 | 3

1.45 ГБ

В этой теме нет новых непрочитанных сообщений. Дети войны / Children of War [драма, военный, история, 2014] DVDRip, DVO

salma3

53 | 10

1.37 ГБ

В этой теме нет новых непрочитанных сообщений. Демоны войны / Demony wojny wedlug Goi [боевик, драма, военный, 1998] DVDRip, Mvo

salma3

27 | 9

1.99 ГБ

В этой теме нет новых непрочитанных сообщений. Дикие Ангелы / Wilde Engel [боевик, комедия, криминал, 2002] DVDRip, Dvo [лицензия]

salma3

14 | 5

1.46 ГБ

В этой теме нет новых непрочитанных сообщений. Сучьи войны [01-08 из 08] [Военный, драма, исторический, 2014] SATRip

Dracon

2715 | 273

4.68 ГБ

В этой теме нет новых непрочитанных сообщений. Зверь войны / The Beast [Драма, Военный, Боевик, 1988] WEB-DLRip, Avo

salma3

103 | 11

1.46 ГБ

В этой теме нет новых непрочитанных сообщений. Секреты войны / Oorlogsgeheimen [драма, военный, семейный, 2014] BDRip 1080p, avo+sub

Dracon

3 | 4

9.76 ГБ


Начать новую тему Ответить на тему  [ 1 сообщение ] 




Для Мосгорсуда, Роскомнадзора и рекламодателей:: mosgorsud-torrent[собачка]yandex.ru