Торрент файл
скачать торрент магнет ссылка Добавлен: 23 мар 2013, 16:08
Размер: 17.76 ГБ
Сидеров: 6
Личеров: 8
Автор

СообщениеДобавлено: 23 мар 2013, 16:08 

Не в сети
Зам. Админа
Аватара пользователя
Дата регистрации:
02 дек 2010, 12:39
Спасибо: 12458 / 214
Сообщения: 27968
Год выпуска: 2012
Выпущено:Германия, Великобритания, ЮАР / Film Afrika Worldwide CC, Scott Free Productions, Tandem Communications

Жанр:фэнтези, драма, приключения
Продолжительность: 01:31:46 + 01:35:30

Перевод 1: Профессиональный (многоголосый, закадровый) "Lizard Cinema Trade"
Перевод 2: Профессиональный (многоголосый, закадровый) Baibako
Оригинальная аудиодорожка: английский
Субтитры: русский

Режиссер: Кристофер Смит / Maria Estrada

В ролях: Джон Хёрт, Том Фелтон, Джессика Браун-Финдли, Тони Карран, Ванесса Кирби, Джон Линч, Себастьян Стэн, Джанет Сузман, Ст. Джон Александр, Орели Баржем...

Описание: Те люди, которые оказываются в этом лабиринте, могут больше никогда не выбраться из него, ведь он хранит в себе множество тайн и загадок, разгадать которые не под силу даже самым осведомленным и грамотным специалистам. Сериал представляет собой увлекательное приключение, объединяющее две сюжетные линии. В современной — археолог Элис Таннер занята раскопками на юге Франции, пытаясь в подземных лабиринтах Каркасона раскрыть тайну исчезновения религиозного движения катаров, которые, согласно легенде, являлись хранителями Святого Грааля. В Средневековой — молодая девушка из XIII века пытается понять символы и диаграммы трех вверенных ей священных книг и сохранить свою жизнь.






Качество видео: BDRip 1080p [неизвестно]
Формат видео: MKV

Видео: 1920x1072 (16:9), H26411.0 Mбит/сек25,000 fps / Бит/(Пиксели*Кадры): 0.214
Аудио 1: Dolby Digital AudioRussian448 kbps5.1 / 48 kHz MVO"Lizard Cinema Trade"
Аудио 2: Dolby Digital AudioRussian384 kbps5.1 / 48 kHz MVO Baibako
Аудио 3: DTS AudioEnglish1536 kbps5.1 / 48 kHz
Формат субтитров: SoftSub (srt)

Раздача от:

General
Complete name: Labirint.s01.2012.P.BDRip.1080p1.mkv
Format: Matroska
Format version: Version 4 / Version 2
File size: 8.55 GiB
Duration: 1h 31mn
Overall bit rate: 13.3 Mbps
Encoded date: UTC 2013-03-23 09:14:05
Writing application: mkvmerge v6.1.0 ('Old Devil') built on Mar2 2013 14:32:37
Writing library: libebml v1.3.0 + libmatroska v1.4.0

Video
ID: 1
Format: AVC
Format/Info: Advanced Video Codec
Format profile: High@L4.1
Format settings, CABAC: Yes
Format settings, ReFrames: 4 frames
Codec ID: V_MPEG4/ISO/AVC
Duration: 1h 31mn
Bit rate: 11.0 Mbps
Width: 1 920 pixels
Height: 1 072 pixels
Display aspect ratio: 16:9
Frame rate mode: Constant
Frame rate: 25.000 fps
Color space: YUV
Chroma subsampling: 4:2:0
Bit depth: 8 bits
Scan type: Progressive
Bits/(Pixel*Frame): 0.214
Stream size: 6.88 GiB (80%)
Writing library: x264 core 129 r2245 bc13772
Encoding settings: cabac=1 / ref=4 / deblock=1:-1:-1 / analyse=0x3:0x113 / me=umh / subme=10 / psy=1 / psy_rd=1.00:0.15 / mixed_ref=0 / me_range=48 / chroma_me=1 / trellis=2 / 8x8dct=1 / cqm=0 / deadzone=21,11 / fast_pskip=0 / chroma_qp_offset=-4 / threads=3 / lookahead_threads=1 / sliced_threads=0 / nr=0 / decimate=1 / interlaced=0 / bluray_compat=0 / constrained_intra=0 / bframes=8 / b_pyramid=2 / b_adapt=2 / b_bias=0 / direct=2 / weightb=1 / open_gop=0 / weightp=2 / keyint=250 / keyint_min=25 / scenecut=40 / intra_refresh=0 / rc_lookahead=90 / rc=2pass / mbtree=1 / bitrate=11000 / ratetol=1.0 / qcomp=0.60 / qpmin=0 / qpmax=59 / qpstep=4 / cplxblur=20.0 / qblur=0.5 / ip_ratio=1.40 / aq=1:0.90
Language: English
Default: Yes
Forced: No
Matrix coefficients: BT.709

Audio #1
ID: 2
Format: AC-3
Format/Info: Audio Coding 3
Mode extension: CM (complete main)
Format settings, Endianness: Big
Codec ID: A_AC3
Duration: 1h 31mn
Bit rate mode: Constant
Bit rate: 448 Kbps
Channel(s): 6 channels
Channel positions: Front: L C R, Side: L R, LFE
Sampling rate: 48.0 KHz
Bit depth: 16 bits
Compression mode: Lossy
Stream size: 294 MiB (3%)
Title: MVO LIZARD
Language: Russian
Default: Yes
Forced: No

Audio #2
ID: 3
Format: AC-3
Format/Info: Audio Coding 3
Mode extension: CM (complete main)
Format settings, Endianness: Big
Codec ID: A_AC3
Duration: 1h 31mn
Bit rate mode: Constant
Bit rate: 384 Kbps
Channel(s): 6 channels
Channel positions: Front: L C R, Side: L R, LFE
Sampling rate: 48.0 KHz
Bit depth: 16 bits
Compression mode: Lossy
Stream size: 252 MiB (3%)
Title: MVO BaibaKo.tv
Language: Russian
Default: No
Forced: No

Audio #3
ID: 4
Format: DTS
Format/Info: Digital Theater Systems
Mode: 16
Format settings, Endianness: Big
Codec ID: A_DTS
Duration: 1h 31mn
Bit rate mode: Constant
Bit rate: 1 509 Kbps
Channel(s): 6 channels
Channel positions: Front: L C R, Side: L R, LFE
Sampling rate: 48.0 KHz
Bit depth: 16 bits
Compression mode: Lossy
Stream size: 990 MiB (11%)
Title: Original
Language: English
Default: No
Forced: No

Text
ID: 5
Format: UTF-8
Codec ID: S_TEXT/UTF8
Codec ID/Info: UTF-8 Plain Text
Language: Russian
Default: No
Forced: No

Menu
00:00:00.000: en:00:00:00.000
00:08:24.600: en:00:08:24.600
00:15:47.120: en:00:15:47.120
00:21:38.120: en:00:21:38.120
00:29:59.040: en:00:29:59.040
00:36:50.640: en:00:36:50.640
00:45:35.720: en:00:45:35.720
00:53:23.920: en:00:53:23.920
01:00:20.280: en:01:00:20.280
01:07:24.720: en:01:07:24.720
01:15:14.240: en:01:15:14.240
01:22:33.000: en:01:22:33.000







реклама партнёра


Вернуться к началу
 Профиль  
 
   Похожие торренты   Автор   Торрент   Размер 
В этой теме нет новых непрочитанных сообщений. Лабиринт / Labyrinth [мюзикл, фэнтези, приключения, семейный, 1986] BDRip 1080p, 3Mvo+3Avo

salma3

62 | 46

8.8 ГБ

В этой теме нет новых непрочитанных сообщений. Горец / Highlander [фэнтези, боевик, драма, приключения, 1986] BDRip 1080p, 2Mvo+4Avo+Sub

salma3

60 | 10

17.87 ГБ

В этой теме нет новых непрочитанных сообщений. Андрон – Чёрный лабиринт / Andròn - The Black Labyrinth [фантастика, боевик, 2015] WEB-DL 1080p, Mvo

salma3

578 | 65

3.34 ГБ

В этой теме нет новых непрочитанных сообщений. Джеймс и гигантский персик / James and the Giant Peach [Мюзикл, фэнтези, приключения, семейный, 1996] BDRip 1080p, 2Mvo+Sub

salma3

18 | 5

9.18 ГБ

В этой теме нет новых непрочитанных сообщений. Весь этот джаз / All That Jazz [мюзикл, фэнтези, драма, музыка, 1979] BDRip 1080p, 2Mvo+2Avo+Sub

salma3

9 | 5

16.66 ГБ

В этой теме нет новых непрочитанных сообщений. Андрон – Чёрный лабиринт / Andron - The Black Labyrinth [Фантастика, боевик, 2016] WEB-DLRip, Dvo

salma3

53 | 1

1.37 ГБ

В этой теме нет новых непрочитанных сообщений. Приключения Раввина Якова / Les Aventures de Rabbi Jacob [Комедия, приключения, 1973] BDRip 1080p, Dub+2Mvo+Dvo+Avo+Sub

salma3

13 | 2

11.62 ГБ


Начать новую тему Ответить на тему  [ 1 сообщение ] 




Для Мосгорсуда, Роскомнадзора и рекламодателей:: mosgorsud-torrent[собачка]yandex.ru