Торрент файл
скачать торрент магнет ссылка Добавлен: 24 мар 2013, 16:00
Размер: 25.28 ГБ
Сидеров: 75
Личеров: 58
Автор

СообщениеДобавлено: 16 мар 2013, 18:07 

Не в сети
2 Звезды
Аватара пользователя
Дата регистрации:
10 окт 2010, 20:23
Возраст: 61
Спасибо: 179 / 0
Сообщения: 323
Откуда: КРАСНОГОРСК
Учитель в законе 3. Возвращение




Год выпуска: 2013
Выпущено: Россия, Мостелефильм по заказу НТВ
Жанр: Боевик, драма, криминал
Продолжительность: 00:45:00
Сезон: 3
Серии: 1-32
Количество серий в сезоне: 32
Перевод :Не требуется
Субтитры: Нет



Режиссер: Сергей Виноградов, Рустам Уразаев

В ролях: Юрий Беляев, Михаил Горевой, Александр Кузнецов, Сергей Векслер, Всеволод Николаев, Кристина Бабушкина, Наталия Антонова, Константин Желдин, Георгий Пицхелаури, Владимир Стеклов, Олеся Судзиловская, Дмитрий Янышевский, Кристина Кучеренко, Денис Варенов, Юрий Воробьев, Роман Индык, Елена Муравьёва, Денис Старков, Даниил Кокин, Бесо Гатаев, Станислав Эрклиевский, Александр Печенин, Денис Дружинин, Чеслав Головинец, Эльдар Калимулин, Дмитрий Собачкин, Ксения Попович, Дмитрий Горевой, Роман Гредин, Тимур Ефременков, Иван Руденко, Венчислав Хотяновский, Алексей Костерев, Елена Мироненко, Ирина Темичева, Руслан Ягудин, Сергей Карасевич

Описание: Прошел год после предыдущих событий. Отец и сын Богомоловы живут в городе Солнечный. Ваня ходит в школу, Борис Андреевич руководит приютом для детей, оказавшихся в сложной жизненной ситуации. Отец и сын живут под настоящей фамилией. С законом Богомол в ладу, с прошлым он завязал… Так ему только кажется. В городе Солнечный происходит рейдерский захват ювелирного завода. Директора завода расстреливают прямо у проходной наемные убийцы? Причем сразу же после встречи с Богомолом. Начинается следствие. Так как прошлое Богомолова для полиции не секрет, он — потенциальный подозреваемый…

Качество: SATRip-AVC
Формат: MPEG-4
Видео кодек: H264
Видео: 2089Кбит/сек,720х480(3/2),в 25.000кадр/сек,AVC(NTSC)(Baseline@L3.0)(1Ref Frames)
Аудио кодек: AAC
Аудио Russian Dolby Digital 5.1: 456Кбит/сек,44.1КГц,6каналов,AAC,(Version4)(LC)

Звуковая дорожка сделана путем наложения чистого голоса озвучивателей на центральный канал оригинальной дорожки. Качество идентично звуковой дорожке.


Общее
Полное имя : D:\С Е Р И А Л Ы\Uchitel_V_Zakone_Vozvraschenie_2013_RUS[NTV_Russia]_DD5.1_x264_Nikolai.Baranov_SATRip-AVC\Uchitel_V_Zakone_Vozvraschenie_E01_RUS[NTV_Russia]_DD5.1_x264_Nikolai.Baranov_SATRip-AVC.mp4
Формат : MPEG-4
Профиль формата : Base Media
Идентификатор кодека : isom
Размер файла : 812 Мбайт
Продолжительность : 44 м.
Режим общего битрейта : Переменный
Общий поток : 2549 Кбит/сек
Дата кодирования : UTC 2013-03-12 18:01:12
Дата пометки : UTC 2013-03-12 18:01:12
Программа кодирования : Lavf51.12.1

Видео
Идентификатор : 1
Формат : AVC
Формат/Информация : Advanced Video Codec
Профиль формата : Baseline@L3.0
Параметр CABAC формата : Нет
Параметр ReFrames формата : 1 кадр
Параметр GOP формата : M=1, N=12
Идентификатор кодека : avc1
Идентификатор кодека/Информация : Advanced Video Coding
Продолжительность : 44 м.
Вид битрейта : Переменный
Битрейт : 2089 Кбит/сек
Максимальный битрейт : 3000 Кбит/сек
Ширина : 720 пикселей
Высота : 480 пикселей
Соотношение сторон : 3:2
Режим частоты кадров : Постоянный
Частота кадров : 25,000 кадров/сек
Частота кадров в оригинале : 24,000 кадра/сек
Стандарт вещания : NTSC
Цветовое пространство : YUV
Субдискретизация насыщенности : 4:2:0
Битовая глубина : 8 бит
Тип развёртки : Прогрессивная
Бит/(Пиксели*Кадры) : 0.242
Размер потока : 665 Мбайт (82%)
Дата кодирования : UTC 2013-03-12 18:01:12
Дата пометки : UTC 2013-03-12 18:01:12

Аудио
Идентификатор : 2
Формат : AAC
Формат/Информация : Advanced Audio Codec
Профиль формата : LC
Идентификатор кодека : 40
Продолжительность : 44 м.
Вид битрейта : Переменный
Битрейт : 456 Кбит/сек
Каналы : 6 каналов
Расположение каналов : Front: L C R, Side: L R, LFE
Частота : 44,1 КГц
Метод сжатия : С потерями
Размер потока : 145 Мбайт (18%)
Дата кодирования : UTC 2013-03-12 18:01:12
Дата пометки : UTC 2013-03-12 18:01:12






[hr]


1. Открыть торрент
2. Снять галки с тех файлов торрента, которые мы не хотим закачивать. Оставляем только на нужных нам файлах (файле).
3. Нажать О.К.

В клиенте utorrent

Инструкция

1) Открыть торрент


2) Снять галки с тех файлов торрента, которые мы не хотим закачивать:

* либо вручную, снимая с каждого файла галку( скрин №1)
* либо, нажав кнопку "Снять метки (Select None)", сняв сразу со всех файлов(скрин №2)
№1

№2

Оставляем только на нужных нам файлах (файле).

3)Нажать О.К



Внимание!!! 24.03. 2013. РАЗДАЧА ОБНОВЛЕНА.Исправлен звук в 10 серии.ОБНОВИТЕ ТОРЕНТ ФАЙЛ.ПРИЯТНОГО ПРОСМОТРА.



Релиз от: Nikolai.Baranov





_________________

Легко быть оптимистом, когда судьба не валит с ног тяжелыми ударами, а лишь иногда легонько шлепает по заднице.



реклама партнёра


Вернуться к началу
 Профиль Отправить личное сообщение  
 
   Похожие торренты   Автор   Торрент   Размер 
В этой теме нет новых непрочитанных сообщений. Учитель в законе 3. Возвращение [S03] (Сергей Виноградов, Рустам Уразаев ) [Боевик, драма, криминал, 2013] HDTV 1080i

Dracon

2 | 4

87.18 ГБ

В этой теме нет новых непрочитанных сообщений. Учитель в законе 3. Возвращение [S03] (Сергей Виноградов, Рустам Уразаев ) [Боевик, драма, криминал, 2013] HDTVRip 720p

Dracon

31 | 13

49.79 ГБ

В этой теме нет новых непрочитанных сообщений. Дельта. Рыбнадзор / Дельта - 2 [1-2 сезоны: 1-46 серия из 48] (Сергей Виноградов, Александр Калугин, Арменак Назикян) [боевик, 2013-2015] SATRip

Dracon

2 | 5

27.3 ГБ

В этой теме нет новых непрочитанных сообщений. Дельта. Продолжение / Дельта - 2 [Серия 01-24 из 24] (Сергей Виноградов, Александр Калугин, Арменак Назикян) [боевик, 2015] SATRip

Dracon

141 | 53

14.71 ГБ

В этой теме нет новых непрочитанных сообщений. Сельский учитель [серии 1-8 из 8] (Дмитрий Сорокин) [драма, семейный, 2015] SATRip

Dracon

79 | 6

4.95 ГБ

В этой теме нет новых непрочитанных сообщений. Дельта. Продолжение [S02] (Сергей Виноградов, Александр Калугин, Арменак Назикян) [боевик, 2015] HDTV 1080i

Dracon

69 | 64

64.79 ГБ

В этой теме нет новых непрочитанных сообщений. Замена / Учитель на замену / The Substitute [боевик, триллер, драма, криминал, 1996] HDRip, Mvo

salma3

63 | 5

1.45 ГБ


Начать новую тему Ответить на тему  [ 1 сообщение ] 




Для Мосгорсуда, Роскомнадзора и рекламодателей:: mosgorsud-torrent[собачка]yandex.ru