[ 1 сообщение ] 
Автор Сообщение

СообщениеДобавлено: 15 мар 2013, 12:05 

Не в сети
2 Звезды
Аватара пользователя
Возраст: 61

Спасибо: 179 / 0
Сообщения: 323
Откуда: КРАСНОГОРСК
Дата регистрации: 10 окт 2010, 20:23
Торренты: 306
Сваты 6



Год выпуска: 2013
Выпущено: Россия, Украина / «Студия Квартал-95», телеканал «Интер»
Жанр: Комедия
Продолжительность: 00:45:00
Сезон: 6
Серия: 1-16
Количество серий в сезоне: 16
Перевод :Не требуется
Субтитры: Нет



Режиссер: Андрей Яковлев, Эдуард Радзюкевич

В ролях: Фёдор Добронравов, Татьяна Кравченко, Людмила Артемьева, Анна Кошмал, Александр Феклистов, Анна Полищук, Костя Чернокрылюк, Олеся Железняк, Николай Добрынин, Владимир Зельдин, Ольга Аросева, Даниил Белых, Инна Королёва, Эммануил Виторган, Елена Сафонова, Роман Лукьянов, Евгений Капорин, Фёдор Гуринец, Алексей Смолка, Денис Шепотинник, Татьяна Васильева, Мария Кочур, Екатерина Варченко

Описание: Женя Ковалева перестала быть готом и теперь у нее новые страдания — мальчики почти не обращают на нее внимания. Она плачет в подушку днями и ночами, а родители Евгении не знают, что делать. Близнецы снова проказничают и не дают родителям спокойно жить, постоянно достают страдающую старшую сестру. Когда бабушки и дедушка интересуются жизнью своих внуков и детей, родители вновь стараются скрыть все невзгоды их семьи, но это сделать не получается, ибо сваты чувствуют нечто неладное и приезжают к Маше и Максиму. Конечно, они не могут оставить всё происходящее без дела и берутся за перевоспитание и усмирение близнецов Ковалевых, а также помогают Женечке решить ее проблему.

Релиз спутникового канала:
Качество: DVВRip-AVC
Формат: MPEG-4
Видео кодек: H264
Видео: 3133Кбит/сек,720х576(4/3)@1280х720(16.9),в 25.000кадр/сек,AVC(Baseline@L5.o)(1Ref Frames)
Аудио кодек: AAC
Аудио Russian Dolby Digital 5.1: 455Кбит/сек,44.1КГц,6каналов,AAC,(Version4)(LC)

Звуковая дорожка сделана путем наложения чистого голоса озвучивателей на центральный канал оригинальной дорожки. Качество идентично звуковой дорожке.


Общее
Полное имя : D:\К О М Е Д И И\Svaty-6_RUS_DD5.1_x264_Nikolai.Baranov_DVBRip-AVC\Svaty-6_E01_RUS_DD5.1_x264_Nikolai.Baranov_DVBRip-AVC.mp4
Формат : MPEG-4
Профиль формата : Base Media
Идентификатор кодека : isom
Размер файла : 1,20 Гбайт
Продолжительность : 47 м.
Режим общего битрейта : Переменный
Общий поток : 3592 Кбит/сек
Дата кодирования : UTC 2013-03-12 08:09:48
Дата пометки : UTC 2013-03-12 08:09:48
Программа кодирования : Lavf51.12.1

Видео
Идентификатор : 1
Формат : AVC
Формат/Информация : Advanced Video Codec
Профиль формата : Baseline@L5.0
Параметр CABAC формата : Нет
Параметр ReFrames формата : 1 кадр
Параметр GOP формата : M=1, N=12
Идентификатор кодека : avc1
Идентификатор кодека/Информация : Advanced Video Coding
Продолжительность : 47 м.
Вид битрейта : Переменный
Битрейт : 3133 Кбит/сек
Максимальный битрейт : 4500 Кбит/сек
Ширина : 1280 пикселей
Высота : 720 пикселей
Соотношение сторон : 16:9
Режим частоты кадров : Постоянный
Частота кадров : 25,000 кадров/сек
Частота кадров в оригинале : 24,000 кадра/сек
Цветовое пространство : YUV
Субдискретизация насыщенности : 4:2:0
Битовая глубина : 8 бит
Тип развёртки : Прогрессивная
Бит/(Пиксели*Кадры) : 0.136
Размер потока : 1,04 Гбайт (87%)
Дата кодирования : UTC 2013-03-12 08:09:48
Дата пометки : UTC 2013-03-12 08:09:48

Аудио
Идентификатор : 2
Формат : AAC
Формат/Информация : Advanced Audio Codec
Профиль формата : LC
Идентификатор кодека : 40
Продолжительность : 47 м.
Вид битрейта : Переменный
Битрейт : 455 Кбит/сек
Каналы : 6 каналов
Расположение каналов : Front: L C R, Side: L R, LFE
Частота : 44,1 КГц
Метод сжатия : С потерями
Размер потока : 155 Мбайт (13%)
Дата кодирования : UTC 2013-03-12 08:09:48
Дата пометки : UTC 2013-03-12 08:09:48









Внимание!!! 23.03. 2013. РАЗДАЧА ОБНОВЛЕНА.Исправлен звук в 10 серии.ОБНОВИТЕ ТОРЕНТ ФАЙЛ.ПРИЯТНОГО ПРОСМОТРА.





1. Открыть торрент
2. Снять галки с тех файлов торрента, которые мы не хотим закачивать. Оставляем только на нужных нам файлах (файле).
3. Нажать О.К.

В клиенте utorrent

Инструкция

1) Открыть торрент


2) Снять галки с тех файлов торрента, которые мы не хотим закачивать:

* либо вручную, снимая с каждого файла галку( скрин №1)
* либо, нажав кнопку "Снять метки (Select None)", сняв сразу со всех файлов(скрин №2)
№1

№2

Оставляем только на нужных нам файлах (файле).

3)Нажать О.К



Релиз от: Nikolai.Baranov





У вас нет необходимых прав для просмотра вложений в этом сообщении.

_________________

Легко быть оптимистом, когда судьба не валит с ног тяжелыми ударами, а лишь иногда легонько шлепает по заднице.


Вернуться к началу
 Профиль Отправить личное сообщение  
 
 [ 1 сообщение ] 
   Похожие темы   Автор   Ответы   Просмотры 
В этой теме нет новых непрочитанных сообщений. Кулинар / KULINAR (сезон 1-2, серия 1-40 из 40) (Михаил Макаренко, Андрей Иванов) [2012- 2013, Боевик, криминал , WEBDLRip-AVC 720р] [DD5.1]

Nikolai.Baranov

1045

В этой теме нет новых непрочитанных сообщений. Последний из Магикян [Сезон 3 серия 29-40 из 40] [комедия, 2013-2014] WEB-DL 720p

Dracon

236

В этой теме нет новых непрочитанных сообщений. Последний из Магикян [Сезон 3 серия 29-40 из 40] [комедия, 2013-2014] SATRip

Dracon

906

В этой теме нет новых непрочитанных сообщений. Ведьмы Ист-Энда / Witches of East End (сезон 1, серия 1-10 из 10) ( Джон Скотт, Аллан Аркуш, Фред Гербер ) [2013, комедия, драма, фэнтези , WEB-DLRip-AVC 1080p] [DD5.1] [NewStudio]

Nikolai.Baranov

168

В этой теме нет новых непрочитанных сообщений. Дабл трабл (Эдуард Оганесян) [Комедия, 2015] WEB-DL 720p

Dracon

1408

В этой теме нет новых непрочитанных сообщений. Дабл трабл (Эдуард Оганесян) [Комедия, 2015] WEB-DL 1080p

Dracon

1575

В этой теме нет новых непрочитанных сообщений. Дабл трабл (Эдуард Оганесян) [Комедия, 2015] DVDRip [Лицензия]

Dracon

1087





Перейти:  

Для Мосгорсуда, Роскомнадзора и рекламодателей:: mosgorsud-torrent[собачка]yandex.ru