Торрент файл
скачать торрент магнет ссылка Добавлен: 15 мар 2013, 01:26
Размер: 13.31 ГБ
Сидеров: 10
Личеров: 4
Автор

СообщениеДобавлено: 15 мар 2013, 01:26 

В сети
Супермодератор
Аватара пользователя
Дата регистрации:
15 фев 2012, 16:44
Возраст: 27
Спасибо: 5143 / 2090
Сообщения: 17475

Белый воротничок / White Collar

Год выпуска: 2012-2013
Жанр:драма, криминал, детектив
Режиссер: Джон Т. Кречмер, Кевин Брэй, Дэнни Гордон
В ролях: Мэтт Бомер, Тим ДиКей, Уилли Гарсон, Тиффани Тиссен, Шариф Аткинс, Марша Томасон, Хилари Бертон, Дайэнн Кэррол, Натали Моралес, Джеймс Ребхорн

Описание: Сериал рассказывает о сотрудничестве гениального мошенника и агента ФБР. Нил Кэффри, невероятно обаятельный преступный ум, наконец-то был пойман своим извечным врагом, отличным агентом государственной безопасности Питером Берком. Когда Нил бежит из тюрьмы, чтобы найти свою пропавшую любовь, Питер ловит его еще раз. Нил предлагает ему не торопиться с отправкой в тюрьму, и рассмотреть возможность сотрудничества. Ведь Нил мог бы помочь словить самых “элитных” преступников, “белых воротничков” преступного мира. Питер понимает, что интуиция и преступный опыт Нила, которых нет у законопослушного агента, могут стать хорошим подспорьем в борьбе с криминалом.



Выпущено: США, Fox Television Studios, Jeff Eastin & Warrior George Productions
Продолжительность: 16 x ~ 00:45:00
Перевод: Профессиональный (двухголосый, закадровый) - (Gutta, Caps)
Субтитры: Нет

Качество: WEB-DLRip
Формат: AVI
Видео: XviD, ~ 2000 Кбит/с, 720x400
Аудио rus: АС3, 2 ch, 384 Кбит/с
Аудио eng: АС3, 2 ch, 384 Кбит/с

Озвучка: (Gutta, Caps)
Редактор: Олег Папулов
Перевод: Negenka
Подготовка видео: Koss
Работа со звуком: Baggio

01. Разыскивается / Wanted
02. Разыскивается и особо опасен / Most Wanted
03. Снижение отдачи / Diminishing Returns
04. Прощальный выстрел / Parting Shots
05. Воровская честь / Honor Among Thieves
06. Кризис личности / Identity Crisis
07. Компрометирующие положение / Compromising Positions
08. Древняя история / Ancient History
09. Долой перчатки / Gloves Off
10. Личная заинтересованность / Vested Interest
11. Семейный бизнес / Family Business
12. Brass Tacks
13. Empire City
14. Shoot the Moon
15. The Original
16. На ветру / In the Wind
General
Complete name : I:Белый Воротничок (Сезон 4) (Gutta, Caps)White.Collar.s05e01.avi
Format : AVI
Format/Info : Audio Video Interleave
File size : 853 MiB
Duration : 42mn 52s
Overall bit rate : 2 782 Kbps
Writing application : VirtualDubMod 1.5.10.3 | http://www.virtualdub-fr.org || (build 2550/release)
Writing library : VirtualDubMod build 2550/release

Video
ID : 0
Format : MPEG-4 Visual
Format profile : Advanced Simple@L5
Format settings, BVOP : 1
Format settings, QPel : No
Format settings, GMC : No warppoints
Format settings, Matrix : Custom
Codec ID : XVID
Codec ID/Hint : XviD
Duration : 42mn 52s
Bit rate : 2 000 Kbps
Width : 720 pixels
Height : 400 pixels
Display aspect ratio : 16:9
Frame rate : 23.976 fps
Color space : YUV
Chroma subsampling : 4:2:0
Bit depth : 8 bits
Scan type : Progressive
Compression mode : Lossy
Bits/(Pixel*Frame) : 0.290
Stream size : 613 MiB (72%)
Writing library : XviD 65

Audio #1
ID : 1
Format : AC-3
Format/Info : Audio Coding 3
Mode extension : CM (complete main)
Codec ID : 2000
Duration : 42mn 52s
Bit rate mode : Constant
Bit rate : 384 Kbps
Channel(s) : 6 channels
Channel positions : Front: L C R, Side: L R, LFE
Sampling rate : 48.0 KHz
Bit depth : 16 bits
Compression mode : Lossy
Stream size : 118 MiB (14%)
Alignment : Split accross interleaves
Interleave, duration : 42 ms (1.00 video frame)
Interleave, preload duration : 500 ms

Audio #2
ID : 2
Format : AC-3
Format/Info : Audio Coding 3
Mode extension : CM (complete main)
Codec ID : 2000
Duration : 42mn 52s
Bit rate mode : Constant
Bit rate : 384 Kbps
Channel(s) : 6 channels
Channel positions : Front: L C R, Side: L R, LFE
Sampling rate : 48.0 KHz
Bit depth : 16 bits
Compression mode : Lossy
Stream size : 118 MiB (14%)
Alignment : Split accross interleaves
Interleave, duration : 42 ms (1.00 video frame)
Interleave, preload duration : 500 ms


Релиз от:




реклама партнёра


Вернуться к началу
 Профиль Отправить личное сообщение  
 
   Похожие торренты   Автор   Торрент   Размер 
В этой теме нет новых непрочитанных сообщений. Белый воротничок / White Collar / 6 сезон 1-6 серии из 6 [детектив, криминал, драма, комедия, 2014] WEB-DLRip, Mvo [NewStudio]

salma3

812 | 370

3.22 ГБ

В этой теме нет новых непрочитанных сообщений. Белый воротничок / White Collar [06x01 из 06] (Джон Т. Кречмер, Рассел Ли Файн, Пол Холахан) [2014, детектив, криминал, драма, комедия, WEB-DLRip | NewStudio]

Nickolas3435

194 | 208

550.05 МБ

В этой теме нет новых непрочитанных сообщений. Ясновидец / Psych / 8 сезон 1-10 серии из 10 [драма, комедия, криминал, детектив, 2014] WEB-DLRip, Mvo [NewStudio]

salma3

8 | 4

5.37 ГБ

В этой теме нет новых непрочитанных сообщений. База Куантико / Quantico / 2 сезон 1-08 серии из 22 [триллер, драма, криминал, детектив, 2016] WEB-DLRip, Mvo [NewStudio]

salma3

19 | 58

3.91 ГБ

В этой теме нет новых непрочитанных сообщений. Риццоли и Айлз / Rizzoli & Isles / 5 сезон 1-18 серии из 18 [драма, криминал, детектив, 2014] WEB-DLRip, Mvo [NewStudio]

salma3

249 | 150

9.61 ГБ

В этой теме нет новых непрочитанных сообщений. Риццоли и Айлс / Rizzoli & Isles / 5 сезон 1-18 серии из 18 [драма, криминал, детектив, 2014-2015] WEB-DLRip, Mvo [NewStudio]

salma3

7 | 10

14.77 ГБ

В этой теме нет новых непрочитанных сообщений. Хорошая жена / The Good Wife / 5 сезон 1-22 серии из 22 [драма, криминал, детектив, 2013] WEB-DL 1080p, Mvo [NewStudio]

salma3

0 | 4

36.13 ГБ


Начать новую тему Ответить на тему  [ 1 сообщение ] 




Для Мосгорсуда, Роскомнадзора и рекламодателей:: mosgorsud-torrent[собачка]yandex.ru