Торрент файл
скачать торрент магнет ссылка Добавлен: 12 мар 2013, 01:11
Размер: 17.08 ГБ
Сидеров: 26
Личеров: 10
Автор

СообщениеДобавлено: 12 мар 2013, 01:27 

Не в сети
2 Звезды
Аватара пользователя
Дата регистрации:
10 окт 2010, 20:23
Возраст: 61
Спасибо: 179 / 0
Сообщения: 323
Откуда: КРАСНОГОРСК
Предчувствие[/b]




Год выпуска: 2013
Выпущено: Россия,, ООО "Авиатор Продакшн", НТВ
Жанр: Мистический детектив, криминал, мелодрама
Продолжительность: 00:45:00
Серии: 1-16
Количество серий в сезоне: 16
Перевод :Не требуется
Субтитры: Нет

Режиссер: Алена Семенова

В ролях: Елена Морозова, Вера Воронкова, Дмитрий Шевченко, Сергей Мардарь, Александр Ильин, Валентина Талызина, Тимофей Трибунцев, Михаил Гаврилов (II), Дмитрий Ермак, Денис Сухомлинов, Сергей Барышев, Алла Будницкая, Владимир Коренев, Сергей Юшкевич, Евгений Воловенко, Дарья Повереннова, Анастасия Бухарцева, Саид Дашук-Нигматулин, Дмитрий Куличков, Зинаида Матросова, Фархад Махмудов, Ёла Санько, Константин Похмелов, Ольга Гайтан, Станислав Костецкий, Юрий Лопарёв, Виктория Маслова, Елена Мольченко (Фатюшина), Анастасия Федоркова, Виталий Вашедский, Николай Хмелёв (II), Олег Байкулов, Александр Казаков, Элен Касьяник

Описание: Валентина Смолина - обычная и ничем не примечательная женщина. Она живет в небольшом городе, работает почтальоном, ей 45 лет. Смолина еще не утратила своей женской привлекательности, но уже не ждет от жизни ничего нового. Всё устоялось в ее судьбе, и резких поворотов не предвидится, но события начинают развиваться мистически... И жизнь Валентины меняется в один день - резко и бесповоротно! После автомобильной аварии Смолина понимает, что может видеть "картинки" и голоса прошлого. И не только прошлого, но и ближайшего будущего! И эти "картинки" и голоса - вещие...

Релиз спутникового канала:
Качество: DVВRip-AVC
Формат: MPEG-4
Видео кодек: H264
Видео: 3134Кбит/сек,720х576(4/3)@1280х720(16.9),в 25.000кадр/сек,AVC(Baseline@L5.o)(1Ref Frames)
Аудио кодек: AAC
Аудио Russian Dolby Digital 5.1: 456Кбит/сек,44.1КГц,6каналов,AAC,(Version4)(LC)

Звуковая дорожка сделана путем наложения чистого голоса озвучивателей на центральный канал оригинальной дорожки. Качество идентично звуковой дорожке.


Общее
Полное имя : D:\У Ж А С Ы\Предчувствие\Predchuvstvie_2013_RUS[NTV_Russia]_DD5.1_x264_Nikolai.Baranov_DVBRip-AVC\Predchuvstvie_E01_RUS[NTV_Russia]_DD5.1_x264_Nikolai.Baranov_DVBRip-AVC.mp4
Формат : MPEG-4
Профиль формата : Base Media
Идентификатор кодека : isom
Размер файла : 1,08 Гбайт
Продолжительность : 42 м.
Режим общего битрейта : Переменный
Общий поток : 3594 Кбит/сек
Дата кодирования : UTC 2013-03-10 10:40:25
Дата пометки : UTC 2013-03-10 10:40:25
Программа кодирования : Lavf51.12.1

Видео
Идентификатор : 1
Формат : AVC
Формат/Информация : Advanced Video Codec
Профиль формата : Baseline@L5.0
Параметр CABAC формата : Нет
Параметр ReFrames формата : 1 кадр
Параметр GOP формата : M=1, N=12
Идентификатор кодека : avc1
Идентификатор кодека/Информация : Advanced Video Coding
Продолжительность : 42 м.
Вид битрейта : Переменный
Битрейт : 3134 Кбит/сек
Максимальный битрейт : 4500 Кбит/сек
Ширина : 1280 пикселей
Высота : 720 пикселей
Соотношение сторон : 16:9
Режим частоты кадров : Постоянный
Частота кадров : 25,000 кадров/сек
Частота кадров в оригинале : 24,000 кадра/сек
Цветовое пространство : YUV
Субдискретизация насыщенности : 4:2:0
Битовая глубина : 8 бит
Тип развёртки : Прогрессивная
Бит/(Пиксели*Кадры) : 0.136
Размер потока : 963 Мбайт (87%)
Дата кодирования : UTC 2013-03-10 10:40:25
Дата пометки : UTC 2013-03-10 10:40:25

Аудио
Идентификатор : 2
Формат : AAC
Формат/Информация : Advanced Audio Codec
Профиль формата : LC
Идентификатор кодека : 40
Продолжительность : 42 м.
Вид битрейта : Переменный
Битрейт : 456 Кбит/сек
Каналы : 6 каналов
Расположение каналов : Front: L C R, Side: L R, LFE
Частота : 44,1 КГц
Метод сжатия : С потерями
Размер потока : 140 Мбайт (13%)
Дата кодирования : UTC 2013-03-10 10:40:25
Дата пометки : UTC 2013-03-10 10:40:25







[hr]

1. Открыть торрент
2. Снять галки с тех файлов торрента, которые мы не хотим закачивать. Оставляем только на нужных нам файлах (файле).
3. Нажать О.К.

В клиенте utorrent

Инструкция

1) Открыть торрент


2) Снять галки с тех файлов торрента, которые мы не хотим закачивать:

* либо вручную, снимая с каждого файла галку( скрин №1)
* либо, нажав кнопку "Снять метки (Select None)", сняв сразу со всех файлов(скрин №2)
№1

№2

Оставляем только на нужных нам файлах (файле).

3)Нажать О.К



Релиз от: Nikolai.Baranov





_________________

Легко быть оптимистом, когда судьба не валит с ног тяжелыми ударами, а лишь иногда легонько шлепает по заднице.



реклама партнёра


Вернуться к началу
 Профиль Отправить личное сообщение  
 
   Похожие торренты   Автор   Торрент   Размер 
В этой теме нет новых непрочитанных сообщений. Культ [S01] (Алёна Семёнова) [Драма, приключения, 2015] WEB-DL 720p

Dracon

636 | 90

7.61 ГБ

В этой теме нет новых непрочитанных сообщений. Культ [01х01-12 из 12] (Алёна Семёнова) [Драма, приключения, 2015] WEB-DLRip

Dracon

684 | 291

6.45 ГБ

В этой теме нет новых непрочитанных сообщений. Жестокий ангел / Святой дьявол / Santa Diabla / 1 сезон 1-140 серии из 140 [триллер, драма, мелодрама, криминал, детектив, 2013] HDTVRip, Mvo [SET]

salma3

6 | 18

76.85 ГБ

В этой теме нет новых непрочитанных сообщений. Предчувствие любви / Presentimientos [Драма, психологический, 2013] WEB-DL 720p, Mvo+Sub

Dracon

41 | 6

2.86 ГБ

В этой теме нет новых непрочитанных сообщений. Предчувствие кошмара / Heebie Jeebies [ужасы,2013] WEB-DLRip | L1

RusTan

9 | 2

1.39 ГБ

В этой теме нет новых непрочитанных сообщений. Предчувствие любви / Presentimientos [Драма, психологический, 2013] WEB-DLRip, avo

Dracon

0 | 2

1.45 ГБ

В этой теме нет новых непрочитанных сообщений. Предчувствие любви / Presentimientos [Драма, психологический, 2013] WEB-DLRip, Mvo

Dracon

1 | 3

1.46 ГБ


Начать новую тему Ответить на тему  [ 1 сообщение ] 




Для Мосгорсуда, Роскомнадзора и рекламодателей:: mosgorsud-torrent[собачка]yandex.ru