Торрент файл
скачать торрент магнет ссылка Добавлен: 09 мар 2013, 00:42
Размер: 7.31 ГБ
Сидеров: 2
Личеров: 2
Статус: (salma3)
Автор

СообщениеДобавлено: 09 мар 2013, 00:42 

Не в сети
Супермодератор
Аватара пользователя
Дата регистрации:
15 фев 2012, 16:44
Возраст: 28
Спасибо: 6593 / 2145
Сообщения: 44239

Название: Перевозчик
Оригинальное название: Transporter: The Series
Год выпуска: 2012
Жанр:боевик, экшн, драма, криминал
Субтитры: Нет
Режиссер: Брэд Тернер, Энди Микита, Т.Дж. Скотт
Сценарий: Люк Бессон, Роберт Марк Кэмен, Джозеф Маллози
В ролях: Крис Вэнс,Андреа Ошварт, Дэльфина Шанеак, Чарли Хюбнер, Франсуа Берлеан, Жан-Поль Мано, Джулиан Ричингс, Джейк Майклс, Джош Блэкер, Ной Кэппи

Описание: Перевозчик — экшн-телесериал по мотивам одноимённой серии фильмов Люка Бессона. В центре сюжета бывший сотрудник Сил специального назначения Фрэнк Мартин, ныне перевозчик разных грузов. Он не задает лишних вопросов и всегда соблюдает чёткие правила: "Никогда не изменяй условия сделки", "Никаких имён", "Никогда не открывать груз". Его точность вождения и боевые навыки позволяют ему выжить в самых опасных ситуациях на протяжении всей миссии.

Страна: Канада, Франция, США, Германия
Продолжительность: 12 х ~ 00:45:00
Перевод: Профессиональный (многоголосый, закадровый) - Baibako



Перевод: Дарья Омельяненко
Озвучка: Руслан Иванов, Елена Григорьева, Татьяна Оболевич и Владимир Курдов.
Монтаж: Игорь Лихо
Обложка: Татьяна Saavick

Качество: BDRip-AVC
Формат: MPEG-4
Аудио кодек: AAC
Видео: AVC, 1536 Кбит/сек, 720x400, 25 000 кадров/сек
Аудио rus: 48,0 КГц, 2 канала, 192 Кбит/сек
Аудио eng: 48,0 КГц, 2 канала, 192 Кбит/сек

Формат: MPEG-4
Профиль формата: Base Media
Идентификатор кодека: isom
Размер файла: 621 Мбайт
Продолжительность: 45 м.
Общий поток: 1922 Кбит/сек
Дата кодирования: UTC 2013-01-14 17:55:39
Дата пометки: UTC 2013-01-14 17:55:39

Видео
Идентификатор: 1
Формат: AVC
Формат/Информация: Advanced Video Codec
Профиль формата: Baseline@L3.0
Параметр CABAC формата: Нет
Параметр ReFrames формата: 3 кадра
Идентификатор кодека: avc1
Идентификатор кодека/Информация: Advanced Video Coding
Продолжительность: 45 м.
Вид битрейта: Переменный
Битрейт: 1536 Кбит/сек
Максимальный битрейт: 10000 Кбит/сек
Ширина: 720 пикс.
Высота: 400 пикс.
Соотношение сторон: 16:9
Режим частоты кадров: Постоянный
Частота кадров: 25,000 кадр/сек
Цветовое пространство: YUV
Подвыборка цветности: 4:2:0
Битовая глубина: 8 бит
Тип развёртки: Прогрессивная
Бит/(Пиксели*Кадры): 0.213
Размер потока: 495 Мбайт (80%)
Заголовок: g-transporter s01e03-720p
Библиотека кодирования: x264 core 125 r2208 d9d2288
Настройки программы: cabac=0 / ref=3 / deblock=1:0:0 / analyse=0x1:0x111 / me=hex / subme=7 / psy=1 / psy_rd=1.00:0.00 / mixed_ref=1 / me_range=16 / chroma_me=1 / trellis=1 / 8x8dct=0 / cqm=0 / deadzone=21,11 / fast_pskip=1 / chroma_qp_offset=-2 / threads=6 / lookahead_threads=1 / sliced_threads=0 / nr=0 / decimate=1 / interlaced=0 / bluray_compat=0 / constrained_intra=0 / bframes=0 / weightp=0 / keyint=250 / keyint_min=25 / scenecut=40 / intra_refresh=0 / rc_lookahead=40 / rc=2pass / mbtree=1 / bitrate=1536 / ratetol=1.0 / qcomp=0.60 / qpmin=0 / qpmax=69 / qpstep=4 / cplxblur=20.0 / qblur=0.5 / vbv_maxrate=10000 / vbv_bufsize=10000 / nal_hrd=vbr / ip_ratio=1.40 / aq=1:1.00
Дата кодирования: UTC 2013-01-14 10:08:02
Дата пометки: UTC 2013-01-14 17:58:02

Аудио #1
Идентификатор: 2
Формат: AAC
Формат/Информация: Advanced Audio Codec
Профиль формата: LC
Идентификатор кодека: 40
Продолжительность: 45 м.
Вид битрейта: Переменный
Битрейт: 192 Кбит/сек
Максимальный битрейт: 204 Кбит/сек
Каналы: 2 канала
Расположение каналов: Front: L R
Частота: 48,0 КГц
Метод сжатия: С потерями
Размер потока: 62,0 Мбайт (10%)
Язык: Russian
Дата кодирования: UTC 2013-01-14 17:57:39
Дата пометки: UTC 2013-01-14 17:58:02

Аудио #2
Идентификатор: 3
Формат: AAC
Формат/Информация: Advanced Audio Codec
Профиль формата: LC
Идентификатор кодека: 40
Продолжительность: 45 м.
Вид битрейта: Переменный
Битрейт: 192 Кбит/сек
Максимальный битрейт: 199 Кбит/сек
Каналы: 2 канала
Расположение каналов: Front: L R
Частота: 48,0 КГц
Метод сжатия: С потерями
Размер потока: 62,0 Мбайт (10%)
Язык: English
Дата кодирования: UTC 2013-01-14 17:57:47
Дата пометки: UTC 2013-01-14 17:58:02


01. Дочь генерала / The General's Daughter
02. Отцовская любовь / Harvest (Vaterliebe)
03. Подмена / Switch (Echt Falsch)
04. Запасной план / Harvest
05. Расплата
06. Троянская лошадиная сила
07. Акулы
08. Алмазы в крови (Горячий лёд)
09. Город любви / City of Love
10. Шерше ля фам / Cherchez La Femme
11. Двенадцать часов
12. Рука помощи






реклама партнёра


Вернуться к началу
 Профиль Отправить личное сообщение  
 
   Похожие торренты   Автор   Торрент   Размер 
В этой теме нет новых непрочитанных сообщений. Перевозчик / Transporter: The Series [S02] (Брэд Тернер, Энди Микита) [боевик, драма, криминал, 2014] HDTVRip [LostFilm]

Dracon

848 | 427

7.39 ГБ

В этой теме нет новых непрочитанных сообщений. Перевозчик: Наследие / The Transporter Refueled (Камиль Деламарр) [боевик, триллер, криминал, 2015] BDRip, Dub [Лицензия]

Dracon

6985 | 486

1.46 ГБ

В этой теме нет новых непрочитанных сообщений. Перевозчик: Наследие / The Transporter Refueled [боевик, триллер, криминал, 2015] BDRip 1080p, dub+sub [Чистый звук]

Dracon

143 | 4

7.78 ГБ

В этой теме нет новых непрочитанных сообщений. Перевозчик: Наследие / The Transporter Refueled [боевик, триллер, криминал, 2015] BDRip 720p, dub+sub [Чистый звук]

salma3

144 | 0

4.5 ГБ

В этой теме нет новых непрочитанных сообщений. Перевозчик: Наследие / The Transporter Refueled (Камиль Деламарр) [боевик, триллер, криминал, 2015] BDRip 1080p, Dub [Лицензия]

Dracon

510 | 48

10.22 ГБ

В этой теме нет новых непрочитанных сообщений. Перевозчик: Наследие / The Transporter Refueled (Камиль Деламарр) [боевик, триллер, криминал, 2015] BDRip 720p, Dub [Лицензия]

Dracon

1090 | 161

7.66 ГБ

В этой теме нет новых непрочитанных сообщений. Перевозчик: Наследие / The Transporter Refueled [Боевик, триллер, криминал, 2015] WEBRip 1080p, Mvo [Трейлер]

salma3

270 | 13

107.71 МБ


Начать новую тему Ответить на тему  [ 1 сообщение ] 




Для Мосгорсуда, Роскомнадзора и рекламодателей:: mosgorsud-torrent[собачка]yandex.ru