Торрент файл
скачать торрент магнет ссылка Добавлен: 02 мар 2013, 23:05
Размер: 12.76 ГБ
Сидеров: 113
Личеров: 78
Автор

СообщениеДобавлено: 02 мар 2013, 23:05 

Не в сети
Релизёр
Аватара пользователя
Дата регистрации:
02 апр 2011, 13:05
Возраст: 34
Спасибо: 55 / 32
Сообщения: 168
Откуда: Калининград
Next. Следующий

Жанр: комедия, драма, криминал
Год выпуска: 2001
Продолжительность: ~ 48 мин х 32
Режиссер: Олег Фомин
В ролях: Александр Абдулов, Александр Лойе, Нина Усатова, Сергей Степанченко, Сергей Греков, Сергей Чонишвили, А. Медведев, В. Капалов, Мария Аронова, Владимир Епископосян

Описание:


Next

Лавр — вор в законе, авторитет «старых понятий», король преступного мира. Он не может иметь семью и детей. Лавр так бы и не узнал ничего о своем сыне, если бы не экзамены, на которых Федечку «завалили». Федору светит армия. И чтобы спасти племянника, его боевая тетя решает напомнить Лавру о его отцовском долге.


Next - 2

Криминальный авторитет Лавр окончательно отошел от преступных дел и живет вполне мирной жизнью. Но перед ним опять встает выбор - либо продолжить мирное существование, либо вспомнить о своей "авторитетной" профессии. Чтобы помочь беззащитному мальчишке Лавру нужно опять стать королем преступного мира.


Next - 3

Лавр (Александр Абдулов) решает распрощаться с депутатским креслом и начинает приготовления к собственной свадьбе. Его невеста Ольга Кирсанова (Екатерина Волкова) ставит только одно условие: жених не должен ни на минуту опоздать в ЗАГС. Вроде бы пустяк, но проблемы, которые обрушиваются на Лавра накануне бракосочетания, могут изменить ощущение времени у любого нормального человека...
|
Семпл: http://multi-up.com/679237
Качество видео: DVDRip
Формат видео: AVI
Видео: 672x384 (1.75:1), 23.976 fps, XviD build 65 ~1038 kbps avg, 0.17 bit/pixel
Аудио: 48 kHz, MPEG Layer 3, 2 ch, ~128.00 kbps avg
MI
General
Complete name : D:\next.s1.e1.2001.dvdrip.410mb.by.riperrr.avi
Format : AVI
Format/Info : Audio Video Interleave
File size : 410 MiB
Duration : 48mn 43s
Overall bit rate : 1 176 Kbps
Movie name : next.s1.e1.2001.dvdrip.410mb.by.riperrr
Writing application : VirtualDubMod 1.5.10.3 | http://www.virtualdub-fr.org || (build 2550/release)
Copyright : riperrr [RG Allfilms rutracker.org]
Video
ID : 0
Format : MPEG-4 Visual
Format profile : Advanced Simple@L5
Format settings, BVOP : 1
Format settings, QPel : No
Format settings, GMC : No warppoints
Format settings, Matrix : Custom
Codec ID : XVID
Codec ID/Hint : XviD
Duration : 48mn 43s
Bit rate : 1 038 Kbps
Width : 672 pixels
Height : 384 pixels
Display aspect ratio : 16:9
Frame rate : 23.976 fps
Color space : YUV
Chroma subsampling : 4:2:0
Bit depth : 8 bits
Scan type : Progressive
Compression mode : Lossy
Bits/(Pixel*Frame) : 0.168
Stream size : 362 MiB (88%)
Writing library : XviD 65
Audio
ID : 1
Format : MPEG Audio
Format version : Version 1
Format profile : Layer 3
Codec ID : 55
Codec ID/Hint : MP3
Duration : 48mn 43s
Bit rate mode : Constant
Bit rate : 128 Kbps
Channel(s) : 2 channels
Sampling rate : 48.0 KHz
Compression mode : Lossy
Stream size : 44.6 MiB (11%)
Alignment : Aligned on interleaves
Interleave, duration : 42 ms (1.00 video frame)
Interleave, preload duration : 504 ms
Writing library : LAME3.98r
Encoding settings : -m s -V 4 -q 0 -lowpass 17 -b 128
Скриншоты




реклама партнёра


Вернуться к началу
 Профиль Отправить личное сообщение  
 
   Похожие торренты   Автор   Торрент   Размер 
В этой теме нет новых непрочитанных сообщений. Чич и Чонг: Следующий фильм. Укуренные заживо! / Cheech and Chong's Next Movie [комедия, криминал, 1980] WEB-DL 1080p, Avo

salma3

118 | 33

3.7 ГБ

В этой теме нет новых непрочитанных сообщений. Чич и Чонг: Следующий фильм. Укуренные заживо! / Укуренные 2 / Cheech and Chong's Next Movie [комедия, криминал, 1980] WEB-DLRip, Avo

salma3

66 | 2

1.46 ГБ

В этой теме нет новых непрочитанных сообщений. В следующий раз я буду стрелять в сердце / La prochaine fois je viserai le coeur (Седрик Анже) [триллер, драма, криминал, 2014] HDRip, Mvo [Лицензия]

Dracon

343 | 9

1.45 ГБ

В этой теме нет новых непрочитанных сообщений. В следующий раз я буду стрелять в сердце / La prochaine fois je viserai le coeur (Седрик Анже) [триллер, драма, криминал, 2014] HDRip, Mvo [Лицензия]

Dracon

127 | 5

2.18 ГБ

В этой теме нет новых непрочитанных сообщений. В следующий раз я буду стрелять в сердце / La prochaine fois je viserai le coeur (Седрик Анже) [триллер, драма, криминал, 2014] BDRip 1080p, Mvo [Лицензия]

Dracon

27 | 1

8.24 ГБ

В этой теме нет новых непрочитанных сообщений. В следующий раз я буду стрелять в сердце / La prochaine fois je viserai le coeur (Седрик Анже) [триллер, драма, криминал, 2014] BDRip 720p, Mvo [Лицензия]

Dracon

46 | 3

4.67 ГБ

В этой теме нет новых непрочитанных сообщений. Легавый 2 [01-12 из 32] (Олег Фомин) [2014, Детектив, SATRip]

Nickolas3435

176 | 61

6.46 ГБ


Начать новую тему Ответить на тему  [ 1 сообщение ] 




Для Мосгорсуда, Роскомнадзора и рекламодателей:: mosgorsud-torrent[собачка]yandex.ru