Торрент файл
скачать торрент магнет ссылка Добавлен: 12 окт 2013, 14:21
Размер: 26.11 ГБ
Сидеров: 1
Личеров: 2
Автор

СообщениеДобавлено: 22 янв 2013, 18:16 

Не в сети
2 Звезды
Аватара пользователя
Дата регистрации:
10 окт 2010, 20:23
Возраст: 61
Спасибо: 179 / 0
Сообщения: 323
Откуда: КРАСНОГОРСК
Сверхъестественное / Supernatural



Год выпуска: 2012-2013
Выпущено: США,Kripke Enterprises, Warner Bros. Pictures Co., Warner Bros. Television, Wonderland Sound and Vision
Жанр: Драма/Фэнтези/Ужасы/Детектив/Триллер
Продолжительность: 00:44:00
Сезон:8-9
Серия: 1-25
Количество серий в сезоне: ХХ
Озвучка:Профессиональная многоголосая закадровая(LostFilm)
Субтитры: Русские Хардсаб от


Официальный сайт сериала
Русскоязычный фан-сайт



Режиссер: Ким Мэннерс, Филип Сгриккиа, Роберт Сингер

В ролях: Джаред Падалеки, Дженсен Эклс, Джим Бивер, Джеффри Дин Морган, Миша Коллинз, Женевьев Кортезе, Кэти Кэссиди, Лорен Коэн, Саманта Феррис, Никки Эйкокс и др.

[
Сериал рассказывает о приключениях братьев Сэма и Дина Винчестеров, которые путешествуют по Соединённым Штатам на чёрном автомобиле Chevrolet Impala 1967 года, расследуют паранормальные явления, многие из которых основаны на американских городских легендах и фольклоре, и сражаются с порождениями зла, такими как демоны и призраки.

Качество : WEB-DLRip-AVC 720p
Формат: MPEG-4
Видео кодек: H264
Видео: 3115-3114Кбит/сек,1280х720(16.9),в 25.000кадр/сек,AVC(Baseline@L3.1)(1Ref Frames)
Аудио кодек: AAC
Аудио Russian Dolby Digital 5.1:456-228Кбит/сек,44.1КГц,6каналов,AAC,(Version4)(LC)

Звуковая дорожка сделана путем наложения чистого голоса озвучивателей на центральный канал оригинальной дорожки. Качество идентично звуковой дорожке.


8-СЕЗОН

1. Поговорим о Кевине (We Need to Talk About Kevin)
2. Вам слово, мамочка! (What's Up, Tiger Mommy?)
3. Сердечные муки (Heartache)
4. Укушенный (Bitten)
5. Брат по крови (Blood Brother)
6. Утоли мои печали (Southern Comfort)
7. Кусочек Кевина (A Little Slice of Kevin)
8. Отважный охотник (Hunteri Heroici)
9. Гражданин Клык (Citizen Fang)
10. На перепутье (Torn and Frayed)
11 Ролевая игра и настоящая девчонка (LARP and the Real Girl)
12 А время летит (As Time Goes By)
13 Все ненавидят Гитлера (Everybody Hates Hitler)
14 Метод проб и ошибок (Trial and Error)
15 Человек собаке друг... и даже больше (Man's Best Friend with Benefits)
16 Вспоминая Титанов (Remember the Titans)
17 Прощай, странник (Goodbye Stranger)
18 Братаны и ботаны (Freaks and Geeks)
19 Перевозчик (Taxi Driver)
20 Игромания (Pac-Man Fever)
21 Великий беглец (The Great Escapist)
22 Дела минувшие (Clip Show)
23 Жертва (Sacrifice)


9-СЕЗОН

01 Думаю, я здесь приживусь (I Think I'm Gonna Like It Here)
02 А нам все равно (Devil May Care)



Общее
Полное имя : D:\Д Е Т Е К Т И В\Supernatural_S08_rus[LostFilm.TV]_DD5.1_x264_Nikolai.Baranov_WEB-DLRip-AVC_(720p\Supernatural_2012_S08E01_rus[LostFilm.TV]_DD5.1_x264_Nikolai.Baranov_WEB-DLRip-AVC_(720p).mp4
Формат : MPEG-4
Профиль формата : Base Media
Идентификатор кодека : isom
Размер файла : 1,07 Гбайт
Продолжительность : 42 м.
Режим общего битрейта : Переменный
Общий поток : 3575 Кбит/сек
Дата кодирования : UTC 2012-11-25 15:58:23
Дата пометки : UTC 2012-11-25 15:58:23
Программа кодирования : Lavf51.12.1

Видео
Идентификатор : 1
Формат : AVC
Формат/Информация : Advanced Video Codec
Профиль формата : Baseline@L3.1
Параметр CABAC формата : Нет
Параметр ReFrames формата : 1 кадр
Параметр GOP формата : M=1, N=12
Идентификатор кодека : avc1
Идентификатор кодека/Информация : Advanced Video Coding
Продолжительность : 42 м.
Вид битрейта : Переменный
Битрейт : 3115 Кбит/сек
Максимальный битрейт : 4500 Кбит/сек
Ширина : 1280 пикселей
Высота : 720 пикселей
Соотношение сторон : 16:9
Режим частоты кадров : Постоянный
Частота кадров : 25,000 кадров/сек
Частота кадров в оригинале : 24,000 кадра/сек
Цветовое пространство : YUV
Субдискретизация насыщенности : 4:2:0
Битовая глубина : 8 бит
Тип развёртки : Прогрессивная
Бит/(Пиксели*Кадры) : 0.135
Размер потока : 952 Мбайт (87%)
Дата кодирования : UTC 2012-11-25 15:58:23
Дата пометки : UTC 2012-11-25 15:58:23

Аудио
Идентификатор : 2
Формат : AAC
Формат/Информация : Advanced Audio Codec
Профиль формата : LC
Идентификатор кодека : 40
Продолжительность : 42 м.
Вид битрейта : Переменный
Битрейт : 456 Кбит/сек
Каналы : 6 каналов
Расположение каналов : Front: L C R, Side: L R, LFE
Частота : 44,1 КГц
Метод сжатия : С потерями
Размер потока : 139 Мбайт (13%)
Дата кодирования : UTC 2012-11-25 15:58:23


General
Полное имя : D:\Д Е Т Е К Т И В\Supernatural_S08_rus[LostFilm.TV]_DD5.1_x264_Nikolai.Baranov_WEB-DLRip-AVC_(720p\Supernatural_2013_S09E01_rus[LostFilm.TV]_DD5.1_x264_Nikolai.Baranov_WEB-DLRip-AVC_(720p).mp4
Формат : MPEG-4
Профиль формата : Base Media
Идентификатор кодека : isom
Размер файла : 1 019 MiB
Продолжительность : 42mn 33s
Режим общего битрейта : Variable
Общий поток : 3 347 Kbps
Дата кодирования : UTC 2013-10-15 14:15:08
Дата пометки : UTC 2013-10-15 14:15:08
Программа кодирования : Lavf51.12.1

Video
Идентификатор : 1
Формат : AVC
Формат/Информация : Advanced Video Codec
Профиль формата : Baseline@L3.1
Параметр CABAC формата : No
Параметр ReFrames формата : 1 frame
Параметр GOP формата : M=1, N=12
Идентификатор кодека : avc1
Идентификатор кодека/Информация : Advanced Video Coding
Продолжительность : 42mn 32s
Вид битрейта : Variable
Битрейт : 3 114 Kbps
Максимальный битрейт : 4 500 Kbps
Ширина : 1 280 pixels
Высота : 720 pixels
Соотношение сторон : 16:9
Режим частоты кадров : Constant
Частота кадров : 25.000 fps
Частота кадров в оригинале : 24.000 fps
Цветовое пространство : YUV
Субдискретизация насыщенности : 4:2:0
Битовая глубина : 8 bits
Тип развёртки : Progressive
Бит/(Пиксели*Кадры) : 0.135
Размер потока : 948 MiB (93%)
Дата кодирования : UTC 2013-10-15 14:15:08
Дата пометки : UTC 2013-10-15 14:15:08

Audio
Идентификатор : 2
Формат : AAC
Формат/Информация : Advanced Audio Codec
Профиль формата : LC
Идентификатор кодека : 40
Продолжительность : 42mn 33s
Вид битрейта : Variable
Битрейт : 228 Kbps
Каналы : 6 channels
Расположение каналов : Front: L C R, Side: L R, LFE
Частота : 44.1 KHz
Метод сжатия : Lossy
Размер потока : 69.5 MiB (7%)
Дата кодирования : UTC 2013-10-15 14:15:08
Дата пометки : UTC 2013-10-15 14:15:08











[ 8-СЕЗОН

[ 9-СЕЗОН

Внимание! Раздача пополняется по мере выхода новых серий!


Раздача ведётся путём добавления новых серий; при каждом добавлении создётся новый торрент.
Чтобы начать докачку новой серии, пользователям необходимо сделать следующее:
1. остановить скачивание,
2. удалить старый торрент у себя из клиента (старые серии удалять не надо),
3. скачать новый торрент и запустить его у себя в клиенте вместо старого, при этом указать клиенту путь в старую папку, куда и должно происходить скачивание новых серий.

Ваш клиент при этом должен произвести хеширование (проверку) старой папки (если не производит сам - помогите ему сделать это), и будет докачивать только те серии которых у вас ещё нет. Старые серии при этом не удаляются, а продолжают раздаваться!

Eсли вы уже удалили старые серии, то предотвратить повторную закачку старых серий можно, отжав галочку в соответсвующих местах при запуске нового торрента. По возможности, желательно не удалять старые серии как можно дольше, чтобы релизёр не столько продолжал раздавать старые серии, а смог сконцентрироваться на новых.

Совет для тех, кто не хочет ждать перехеширования:
Создайте ещё одну папку рядом с папкой сериала (рядом, а не в ней!!!). Каждую новую серию после удачной загрузки копируйте в новую папку так чтобы ваша основная папка всегда была пуста. Когда ваш новый торрент предложит вам закачать все файлы, выберете только последнюю. Для сидирования же укажите адрес новой папки.

Как закачать отдельный файл из торрента или докачать ранее пропущенные файлы торрента!

1. Открыть торрент
2. Снять галки с тех файлов торрента, которые мы не хотим закачивать. Оставляем только на нужных нам файлах (файле).
3. Нажать О.К.

В клиенте utorrent

Инструкция

1) Открыть торрент


2) Снять галки с тех файлов торрента, которые мы не хотим закачивать:

* либо вручную, снимая с каждого файла галку( скрин №1)
* либо, нажав кнопку "Снять метки (Select None)", сняв сразу со всех файлов(скрин №2)
№1

№2

Оставляем только на нужных нам файлах (файле).

3)Нажать О.К



Внимание!!! 22.10. 2013. РАЗДАЧА ОБНОВЛЕНА.ОБНОВИТЕ ТОРЕНТ ФАЙЛ.ПРИЯТНОГО ПРОСМОТРА.

Релиз от: Nikolai.Baranov







_________________

Легко быть оптимистом, когда судьба не валит с ног тяжелыми ударами, а лишь иногда легонько шлепает по заднице.



реклама партнёра


Вернуться к началу
 Профиль Отправить личное сообщение  
 
   Похожие торренты   Автор   Торрент   Размер 
В этой теме нет новых непрочитанных сообщений. Сверхъестественное / Supernatural / 10 сезон 1-23 серии из 23 [ужасы, фэнтези, триллер, драма, детектив, 2014-2015] WEB-DLRip, Mvo [LostFilm]

salma3

1797 | 1630

8.88 ГБ

В этой теме нет новых непрочитанных сообщений. Сверхъестественное / Supernatural (Сезон 11, Серия 1-15 из 23) ( Филип Сгриккиа, Роберт Сингер) 2015-2016 , Драма/Фэнтези/Ужасы/Детектив/Триллер , WEBDLRip 1080р] [MVO] [NewStudio & NovaFilm , LostFilm , BaibaKo , Jaskier] + [Subs Rus,EN

Враг Нароода

В этой теме нет новых непрочитанных сообщений. Сверхъестественное / Supernatural (Сезон 11, Серия 1-18 из 23) ( Филип Сгриккиа, Роберт Сингер) 2015-2016 , Драма/Фэнтези/Ужасы/Детектив/Триллер , WEBDLRip 1080р] [MVO] [NewStudio & NovaFilm , LostFilm , BaibaKo , Jaskier, Englis] + [Sub

Враг Нароода

0 | 1

37.03 ГБ

В этой теме нет новых непрочитанных сообщений. Сверхъестественное / Supernatural (Сезон 11, Серия 1-13 из 23) ( Филип Сгриккиа, Роберт Сингер) 2015-2016 , Драма/Фэнтези/Ужасы/Детектив/Триллер , WEBDLRip 1080р] [MVO] [NewStudio & NovaFilm , LostFilm , BaibaKo , Jaskier] + [Subs Rus,EN

Враг Нароода

0 | 0

26.92 ГБ

В этой теме нет новых непрочитанных сообщений. Сверхъестественное / Supernatural / 11 сезон 1-23 серии из 23 (Филип Сгриккиа, Роберт Сингер, Ким Мэннерс) [2015, Ужасы, фэнтези, триллер, драма, детектив, WEB-DLRip | LostFilm]

Dracon

317 | 164

8.79 ГБ

В этой теме нет новых непрочитанных сообщений. Сверхъестественное / Supernatural / 12 сезон 1-07 серии из 24 [ужасы, фэнтези, триллер, 2016] WEB-DLRip, Mvo [LostFilm]

salma3

344 | 1568

3.42 ГБ

В этой теме нет новых непрочитанных сообщений. Чужой среди своих / Родина / Homeland (Сезон 2-4, Серии 1-28 из 36) [2012-2014, Триллер, драма, криминал, детектив , WEBDLRip-AVC 720р] [MVO] (LostFilm)

Враг Нароода


Начать новую тему Ответить на тему  [ 1 сообщение ] 




Для Мосгорсуда, Роскомнадзора и рекламодателей:: mosgorsud-torrent[собачка]yandex.ru