Торрент файл
скачать торрент магнет ссылка Добавлен: 20 янв 2013, 20:40
Размер: 26.46 ГБ
Сидеров: 55
Личеров: 13
Автор

СообщениеДобавлено: 20 янв 2013, 20:40 

Не в сети
Зам. Админа
Аватара пользователя
Дата регистрации:
02 дек 2010, 12:39
Спасибо: 12652 / 214
Сообщения: 28010

Год выхода: 2012
Жанр:Военный, драма
Выпущено: Россия / Россия 1, PlatinFilm
Режиссер: Сергей Снежкин
В ролях: Константин Хабенский, Ксения Раппопорт, Федор Бондарчук, Алексей Серебряков, Сергей Гармаш, Михаил Пореченков, Евгений Стычкин, Евгений Дятлов, Сергей Шакуров, Екатерина Вилкова, Юрий Стоянов, Алексей Гуськов, Ирина Скобцева, Ксения Кутепова, Максим Леонидов, Владимир Вдовиченков, Евгения Добровольская, Игорь Верник, Артур Смольянинов, Анна Банщикова, Николай Ефремов, Артур Ваха, Янина Студилина, Игорь Черневич, Сергей Брюн, Юрий Ицков, Сергей Барковский, Олег Волку, Михаил Вассербаум, Иван Краско, Мария Луговая

О фильме: 1918 год. Киев. После ухода немецких войск, которые оккупировали всю территорию Украины, в Киев входят войска Петлюры. На фоне событий кровавого 1918 года разворачивается печальная, трагическая история семьи Турбиных. Алексей Турбин - военный медик, был одним из тех офицеров, который после Великой октябрьской революции 1917 года должен был сделать свой непростой выбор - бороться против большевиков или оставить военную службу и зажить обычной гражданской жизнью. У него за плечами три года участия в первой мировой войне. Алексею Турбину приходится делать свой выбор. Его сестра Елена и младший брат Николка поневоле оказываются вовлеченными в происходящие события, как военной, так и политической жизни.

Качество: BDRip 1080p
Видео: MPEG-4 AVC, 8600 Кбит/с, 1920x1080, 23.976 кадр/с
Аудио: Русский (DTS, 6 ch, 1536 Кбит/с)
Продолжительность: 06:14:44
Format : Matroska
Format version : Version 4 / Version 2
File size : 26.5 GiB
Duration : 6h 14mn
Overall bit rate : 10.1 Mbps
Movie name : CMEGRoup
Encoded date : UTC 2010-02-22 21:41:31
Writing application : mkvmerge v5.9.0 ('On The Loose') built on Dec 9 2012 15:37:01
Writing library : libebml v1.3.0 + libmatroska v1.4.0

Video
ID : 1
Format : AVC
Format/Info : Advanced Video Codec
Format profile : High@L4.1
Format settings, CABAC : Yes
Format settings, ReFrames : 4 frames
Codec ID : V_MPEG4/ISO/AVC
Duration : 6h 14mn
Bit rate : 8 600 Kbps
Width : 1 920 pixels
Height : 1 080 pixels
Display aspect ratio : 16:9
Frame rate : 25.000 fps
Color space : YUV
Chroma subsampling : 4:2:0
Bit depth : 8 bits
Scan type : Progressive
Bits/(Pixel*Frame) : 0.166
Stream size : 22.0 GiB (83%)
Writing library : x264 core 129 r2230 1cffe9f
Encoding settings : cabac=1 / ref=4 / deblock=1:-3:-3 / analyse=0x3:0x113 / me=umh / subme=10 / psy=1 / psy_rd=1.00:0.00 / mixed_ref=1 / me_range=24 / chroma_me=1 / trellis=2 / 8x8dct=1 / cqm=0 / deadzone=21,11 / fast_pskip=1 / chroma_qp_offset=-2 / threads=6 / lookahead_threads=1 / sliced_threads=0 / nr=0 / decimate=1 / interlaced=0 / bluray_compat=0 / constrained_intra=0 / bframes=6 / b_pyramid=2 / b_adapt=2 / b_bias=0 / direct=2 / weightb=0 / open_gop=0 / weightp=2 / keyint=250 / keyint_min=25 / scenecut=40 / intra_refresh=0 / rc_lookahead=40 / rc=2pass / mbtree=1 / bitrate=8600 / ratetol=1.0 / qcomp=0.60 / qpmin=0 / qpmax=69 / qpstep=4 / cplxblur=20.0 / qblur=0.5 / ip_ratio=1.40 / aq=1:1.00 / zones=560246,562020,q=40
Language : English
Default : Yes
Forced : No

Audio
ID : 2
Format : DTS
Format/Info : Digital Theater Systems
Codec ID : A_DTS
Duration : 6h 14mn
Bit rate mode : Constant
Bit rate : 1 510 Kbps
Channel(s) : 6 channels
Channel positions : Front: L C R, Side: L R, LFE
Sampling rate : 48.0 KHz
Bit depth : 24 bits
Compression mode : Lossy
Stream size : 3.95 GiB (15%)
Language : Russian
Default : Yes
Forced : No

Menu
00:00:00.000 : :Chapter 01
00:10:12.800 : :Chapter 02
00:22:43.359 : :Chapter 03
00:32:35.880 : :Chapter 04
00:43:03.640 : :Chapter 05
00:57:36.560 : :Chapter 06
01:08:48.600 : :Chapter 07
01:20:11.640 : :Chapter 08
01:29:45.200 : :Chapter 09
01:41:51.760 : :Chapter 10
01:54:12.760 : :Chapter 11
02:09:26.200 : :Chapter 12
02:25:23.640 : :Chapter 13
02:39:28.119 : :Chapter 14
02:52:23.200 : :Chapter 15
03:02:22.599 : :Chapter 16
03:10:44.040 : :Chapter 17
03:23:42.520 : :Chapter 18
03:38:52.480 : :Chapter 19
03:49:18.760 : :Chapter 20
04:02:12.920 : :Chapter 21
04:11:07.360 : :Chapter 22
04:23:54.000 : :Chapter 23
04:37:40.400 : :Chapter 24
04:51:06.000 : :Chapter 25
05:01:07.960 : :Chapter 26
05:10:41.400 : :Chapter 27
05:19:39.320 : :Chapter 28
05:35:23.000 : :Chapter 29
05:44:48.760 : :Chapter 30
05:56:24.480 : :Chapter 31
06:04:48.360 : :Chapter 32





Релиз от: BlueBird



Вернуться к началу
 Профиль  
 
   Похожие торренты   Автор   Торрент   Размер 
В этой теме нет новых непрочитанных сообщений. Белая графиня / The White Countess [Мелодрама, драма, военный, история, 2005] WEB-DL 720p, Mvo

salma3

121 | 75

4.75 ГБ

В этой теме нет новых непрочитанных сообщений. Белая мгла / Whiteout [боевик, триллер, криминал, детектив, 2009] BDRip 1080p, Dub+Sub

salma3

136 | 21

7.76 ГБ

В этой теме нет новых непрочитанных сообщений. Белая принцесса / The White Princess [S01] [Драма, 2017] WEBRip 1080p, Mvo [Baibako]

salma3

27 | 81

38.78 ГБ

В этой теме нет новых непрочитанных сообщений. Белая молния / White Lightning [боевик, драма, криминал, 1973] BDRip, Dvo [НТВ+]

salma3

69 | 12

1.45 ГБ

В этой теме нет новых непрочитанных сообщений. 28 панфиловцев [военный, драма, 2016] BDRip 1080p [Лицензия]

salma3

1328 | 220

9.93 ГБ

В этой теме нет новых непрочитанных сообщений. Сальвадор / Salvador [Триллер, драма, военный, 1986] BDRip 1080p, Mvo

salma3

25 | 9

17.76 ГБ

В этой теме нет новых непрочитанных сообщений. МакБэйн / McBain [боевик, драма, военный, 1991] BDRip 1080p, Avo

salma3

0 | 2

7.95 ГБ


Начать новую тему Ответить на тему  [ 1 сообщение ] 




Для Мосгорсуда, Роскомнадзора и рекламодателей:: mosgorsud-torrent[собачка]yandex.ru
cron