Торрент файл
скачать торрент магнет ссылка Добавлен: 18 июл 2013, 13:08
Размер: 10.55 ГБ
Сидеров: 87
Личеров: 37
Статус: (salma3)
Автор

СообщениеДобавлено: 08 янв 2013, 16:09 

В сети
Супермодератор
Аватара пользователя
Дата регистрации:
15 фев 2012, 16:44
Возраст: 27
Спасибо: 5135 / 2089
Сообщения: 17409

Морская Полиция: Спецотдел / NCIS: Naval Criminal Investigative Service

Год выхода: 2012
Жанр: Боевик, Драма
Режиссер: Дональд П. Беллисарио, Дон МакГилл
В ролях: Марк Хармон, Майкл Уизерли, Полли Перретт, Дэвид МакКаллум, Шон Мюррэй, Коте де Пабло и др.

О фильме:
Остросюжетный детектив о приключениях команды специальных агентов. Их задача - расследовать преступления, связанные со служащими морской пехоты. Отдел расследований возглавляет специальный агент Лерой Джетро Гиббс. Его команда – это бывший детектив Энтони ДиНоззо, ныне бывший секретный агент Моссад - Зива Давид, судмедэксперт Эбби Шуто и компьютерный гений Тимоти МакГи.



Страна: США
Продолжительность: 24x 00:44:00
Перевод: Любительский (двухголосый, закадровый)
Всего серий: 24

Файл
Кодек: XviD
Качество: WEB-DLRip
Видео: 720x400 (1.77:1), 23.976 fps, XviD MPEG-4 ~1157 kbps avg, 0.168 bit/pixel
Аудио Rus: 48 kHz, MPEG Layer 3, 2 ch, 128 kbps avg
Аудио Eng: 48 kHz, MPEG Layer 3, 2 ch, 128 kbps avg




[b]Перевод:
pAKk
Озвучивание: Катерина Магура и Владимир Курдов
Работа с видео, монтаж и сведение звука: veryserg
General
Complete name: D:\документы\NCIS_10_sezon\NCIS.s10e01.WEB-DLRip.Rus.Eng.To4ka.TV.avi
Format: AVI
Format/Info: Audio Video Interleave
File size: 451 MiB
Duration: 44mn 8s
Overall bit rate: 1 427 Kbps
Writing application: VirtualDubMod 1.6.0.0 SURROUND (build 2560/release)
Writing library: VirtualDubMod build 2560/release
Video
ID: 0
Format: MPEG-4 Visual
Format profile: Advanced Simple@L5
Format settings, BVOP: 1
Format settings, QPel: No
Format settings, GMC: No warppoints
Format settings, Matrix: Default (MPEG)
Codec ID: XVID
Codec ID/Hint: XviD
Duration: 44mn 8s
Bit rate: 1 157 Kbps
Width: 720 pixels
Height: 400 pixels
Display aspect ratio: 16:9
Frame rate: 23.976 fps
Color space: YUV
Chroma subsampling: 4:2:0
Bit depth: 8 bits
Scan type: Progressive
Compression mode: Lossy
Bits/(Pixel*Frame): 0.168
Stream size: 365 MiB (81%)
Writing library: XviD 64
Audio #1
ID: 1
Format: MPEG Audio
Format version: Version 1
Format profile: Layer 3
Mode: Joint stereo
Mode extension: MS Stereo
Codec ID: 55
Codec ID/Hint: MP3
Duration: 44mn 8s
Bit rate mode: Constant
Bit rate: 128 Kbps
Channel(s): 2 channels
Sampling rate: 48.0 KHz
Compression mode: Lossy
Stream size: 40.4 MiB (9%)
Alignment: Aligned on interleaves
Interleave, duration: 42 ms (1.00 video frame)
Interleave, preload duration: 504 ms
Audio #2
ID: 2
Format: MPEG Audio
Format version: Version 1
Format profile: Layer 3
Codec ID: 55
Codec ID/Hint: MP3
Duration: 44mn 8s
Bit rate mode: Constant
Bit rate: 128 Kbps
Channel(s): 2 channels
Sampling rate: 48.0 KHz
Compression mode: Lossy
Stream size: 40.4 MiB (9%)
Alignment: Split accross interleaves
Interleave, duration: 42 ms (1.00 video frame)
Interleave, preload duration: 500 ms

Релиз:

ВНИМАНИЕ!! Добавлены 24 серия 18.07.13 перезакачайте торрент!!




реклама партнёра


Вернуться к началу
 Профиль Отправить личное сообщение  
 
   Похожие торренты   Автор   Торрент   Размер 
В этой теме нет новых непрочитанных сообщений. Морская Полиция: Спецотдел / NCIS: Naval Criminal Investigative Service / 13 сезон 1-12 серии из 24 [боевик, драма, 2015] WEB-DLRip, Dvo [To4ka]

salma3

11 | 23

5.77 ГБ

В этой теме нет новых непрочитанных сообщений. Морская Полиция: Спецотдел / NCIS: Naval Criminal Investigative Service / 12 сезон 1-24 серии из 24 [боевик, драма, 2014] WEB-DLRip, Dvo [To4ka]

salma3

94 | 81

10.55 ГБ

В этой теме нет новых непрочитанных сообщений. Морская полиция: Спецотдел / NCIS: Naval Criminal Investigative Service / 11 сезон 1-8 серии из 24 [драма, детектив, 2013-2014] WEB-DLRip, Mvo [BaibaKo]

salma3

1 | 6

4.89 ГБ

В этой теме нет новых непрочитанных сообщений. Морская полиция: Спецотдел / NCIS: Naval Criminal Investigative Service [14x08 из 24] [Драма, комедия, детектив, 2016] HDTVRip, Mvo [IdeaFilm]

salma3

99 | 102

4.52 ГБ

В этой теме нет новых непрочитанных сообщений. Морская полиция: Спецотдел / NCIS: Naval Criminal Investigative Service [14x01] [Драма, комедия, детектив, 2016] HDTV 720p, Dvo [Jetvis Studio]

salma3

0 | 2

938.78 МБ

В этой теме нет новых непрочитанных сообщений. Морская полиция: Спецотдел / NCIS: Naval Criminal Investigative Service [13x01-07 из 24] (Дональд П. Беллисарио, Дон МакГилл) [2015, Драма, комедия, детектив, HDTVRip | IdeaFilm]

Nickolas3435

54 | 63

3.19 ГБ

В этой теме нет новых непрочитанных сообщений. Морская полиция: Спецотдел / NCIS: Naval Criminal Investigative Service [13x01-08 из 24] (Дональд П. Беллисарио, Дон МакГилл) [2015, Драма, комедия, детектив, HDTVRip | IdeaFilm]

Dracon

26 | 76

3.56 ГБ


СообщениеДобавлено: 11 июл 2013, 22:05 

В сети
Супермодератор
Аватара пользователя
Дата регистрации:
15 фев 2012, 16:44
Возраст: 27
Спасибо: 5135 / 2089
Сообщения: 17409
Добавлена 22-я серия

_________________


Вернуться к началу
 Профиль Отправить личное сообщение  
 

СообщениеДобавлено: 15 июл 2013, 21:18 

В сети
Супермодератор
Аватара пользователя
Дата регистрации:
15 фев 2012, 16:44
Возраст: 27
Спасибо: 5135 / 2089
Сообщения: 17409
Добавлена 23-я серия

_________________


Вернуться к началу
 Профиль Отправить личное сообщение  
 

СообщениеДобавлено: 18 июл 2013, 13:15 

В сети
Супермодератор
Аватара пользователя
Дата регистрации:
15 фев 2012, 16:44
Возраст: 27
Спасибо: 5135 / 2089
Сообщения: 17409
Добавлена 24-я серия

_________________


Вернуться к началу
 Профиль Отправить личное сообщение  
 
Начать новую тему Ответить на тему  [ Сообщений: 4 ] 




Для Мосгорсуда, Роскомнадзора и рекламодателей:: mosgorsud-torrent[собачка]yandex.ru