Торрент файл
скачать торрент магнет ссылка Добавлен: 03 янв 2013, 18:14
Размер: 3.08 ГБ
Сидеров: 6
Личеров: 4
Автор

СообщениеДобавлено: 03 янв 2013, 18:14 

Не в сети
Зам. Админа
Аватара пользователя
Дата регистрации:
02 дек 2010, 12:39
Спасибо: 12623 / 214
Сообщения: 28012

Год выпуска: 2012
Страна: Великобритания
Жанр:Драма, комедия
Продолжительность: 04 х ~ 00:25:00
Перевод: Профессиональный (многоголосый закадровый) - LostFilm
Субтитры: нет
Режиссер: Алекс Хардкэсл

В ролях: Дэниэл Рэдклифф, Адам Годли, Джон Хэмм, Рози Кавальеро, Вики Пеппердин

Описание: Экранизация цикла рассказов Михаила Булгакова "Записки юного врача".
В неспокойное революционное время юный врач Бомгард Владимир прибыл в маленькую деревушку, где принялся лечить местных жителей. Главному герою сериала приходится весьма нелегко, ведь он вынужден сталкиваться с трудностями своей профессии, а также постоянными суевериями своих пациентов.



Качество: HDTVRip 720p
Формат: MKV
Видео кодек: MPEG-4
Аудио кодек: AC3
Видео: MPEG-4 AVC, 4041 Кбит/с, 1280x720
Аудио rus: AC3, 2 ch, 384 Кбит/с
Аудио eng: AC3, 2 ch, 384 Кбит/с

Добавлена 04-ая серия. Сезон полностью.

Формат: Matroska
Размер файла: 787 Мбайт
Продолжительность: 22 м.
Общий поток: 4810 Кбит/сек
Дата кодирования: UTC 2013-01-02 20:21:14
Программа кодирования: mkvmerge v4.2.0 ('No Talking') сборка от Jul 28 2010 18:38:23
Библиотека кодирования: libebml v1.0.0 + libmatroska v1.0.0

Видео
Идентификатор: 1
Формат: AVC
Формат/Информация: Advanced Video Codec
Профиль формата: High@L3.1
Параметр CABAC формата: Да
Параметр ReFrames формата: 4 кадра
Параметры GOP формата: M=3, N=6
Идентификатор кодека: V_MPEG4/ISO/AVC
Продолжительность: 22 м.
Битрейт: 4041 Кбит/сек
Ширина: 1280 пикс.
Высота: 720 пикс.
Соотношение сторон: 16:9
Частота кадров: 23,976 кадр/сек
Цветовое пространство: YUV
Подвыборка цветности: 4:2:0
Битовая глубина: 8 бит
Тип развёртки: Прогрессивная
Бит/(Пиксели*Кадры): 0.183
Размер потока: 645 Мбайт (82%)
Библиотека кодирования: x264 core 112 r1834 a51816a
Настройки программы: cabac=1 / ref=1 / deblock=1:0:0 / analyse=0x3:0x113 / me=hex / subme=7 / psy=1 / psy_rd=1.00:0.00 / mixed_ref=0 / me_range=16 / chroma_me=1 / trellis=1 / 8x8dct=1 / cqm=0 / deadzone=21,11 / fast_pskip=1 / chroma_qp_offset=-2 / threads=6 / sliced_threads=0 / nr=0 / decimate=1 / interlaced=0 / constrained_intra=0 / bframes=3 / b_pyramid=2 / b_adapt=1 / b_bias=0 / direct=1 / weightb=1 / open_gop=0 / weightp=2 / keyint=250 / keyint_min=25 / scenecut=40 / intra_refresh=0 / rc_lookahead=40 / rc=2pass / mbtree=1 / bitrate=4041 / ratetol=1.0 / qcomp=0.60 / qpmin=0 / qpmax=51 / qpstep=4 / cplxblur=20.0 / qblur=0.5 / ip_ratio=1.40 / aq=1:1.00

Аудио #1
Идентификатор: 2
Формат: AC-3
Формат/Информация: Audio Coding 3
Расширение режима: CM (complete main)
Идентификатор кодека: A_AC3
Продолжительность: 22 м.
Вид битрейта: Постоянный
Битрейт: 384 Кбит/сек
Каналы: 2 канала
Расположение каналов: Front: L R
Частота: 44,1 КГц
Битовая глубина: 16 бит
Метод сжатия: С потерями
Размер потока: 62,8 Мбайт (8%)

Аудио #2
Идентификатор: 3
Формат: AC-3
Формат/Информация: Audio Coding 3
Расширение режима: CM (complete main)
Идентификатор кодека: A_AC3
Продолжительность: 22 м.
Вид битрейта: Постоянный
Битрейт: 384 Кбит/сек
Каналы: 2 канала
Расположение каналов: Front: L R
Частота: 48,0 КГц
Битовая глубина: 16 бит
Метод сжатия: С потерями
Размер потока: 62,8 Мбайт (8%)


Релиз от:




реклама партнёра


Вернуться к началу
 Профиль  
 
   Похожие торренты   Автор   Торрент   Размер 
В этой теме нет новых непрочитанных сообщений. [DoctorAdventures.com / Brazzers.com] Phoenix Marie (Doctor Knows Best / 04.04.2017) [Big Tits, Big Tits Worship, Blonde, Blowjob (POV), Bubble Butt, Cheating, Couples Fantasies, Doctor, Doctor/Nurse, Feet, Femdom, MILF, Uniform]

salma3

6 | 2

458.35 МБ

В этой теме нет новых непрочитанных сообщений. [DoctorAdventures.com / Brazzers.com] Ariella Ferrera (Doctor, I Cheated On My Girlfriend / 26.01.2017) [Big Tits, Big Tits Worship, Brunette, Cheating, Couples Fantasies, Doctor, Doctor/Nurse, Feet, Latina, MILF, Oil, Uniform, Wife]

salma3

14 | 4

485.86 МБ

В этой теме нет новых непрочитанных сообщений. [DoctorAdventures.com / Brazzers.com] Ariella Ferrera (Doctor, I Cheated On My Girlfriend / 26.01.2017) [Big Tits, Big Tits Worship, Brunette, Cheating, Couples Fantasies, Doctor, Doctor/Nurse, Feet, Latina, MILF, Oil, Uniform, Wife]

salma3

7 | 2

258.07 МБ

В этой теме нет новых непрочитанных сообщений. [DoctorAdventures.com / Brazzers.com] Phoenix Marie (Doctor Knows Best / 04.04.2017) [Big Tits, Big Tits Worship, Blonde, Blowjob (POV), Bubble Butt, Cheating, Couples Fantasies, Doctor, Doctor/Nurse, Feet, Femdom, MILF, Uniform]

salma3

38 | 13

242.89 МБ

В этой теме нет новых непрочитанных сообщений. [DoctorAdventures.com / Brazzers.com] Ariella Ferrera (Doctor, I Cheated On My Girlfriend / 26.01.2017) [2017 г., Big Tits,Big Tits Worship,Brunette,Cheating,Couples Fantasies,Doctor,Doctor/Nurse,Feet,Latina,MILF,Oil,Uniform,Wife, 1080p]

salma3

1 | 0

2.7 ГБ

В этой теме нет новых непрочитанных сообщений. Доктор-чужестранец / Dakteo Yibangin / Doctor Stranger [01-20 из 20] (Джин Хёк) [Медицина, драма, 2014] HDTVRip, dvo

Dracon

24 | 11

11.19 ГБ

В этой теме нет новых непрочитанных сообщений. Young Girls Love Sex / Молодые Девушки Любят Секс (Digital Sin) (Christy Mack, Cameron Canada, Alexis Monroe, and Britney Young, with Mr. Pete...) [2012 г., Gonzo, 18+ Teens, DVDRip 352p]

friizze

0 | 6

1.37 ГБ


Начать новую тему Ответить на тему  [ 1 сообщение ] 




Для Мосгорсуда, Роскомнадзора и рекламодателей:: mosgorsud-torrent[собачка]yandex.ru