Торрент файл
скачать торрент магнет ссылка Добавлен: 01 янв 2013, 19:11
Размер: 1.39 ГБ
Сидеров: 0
Личеров: 3
Автор

СообщениеДобавлено: 01 янв 2013, 19:11 

В сети
Супермодератор
Аватара пользователя
Дата регистрации:
15 фев 2012, 16:44
Возраст: 27
Спасибо: 5148 / 2090
Сообщения: 17554

Перевозчик / Transporter: The Series

Год выпуска: 2012
Жанр:Боевик, экшн, драма, криминал
Режиссер: Брэд Тернер, Энди Микита, Т.Дж. Скотт
В ролях: Крис Вэнс, Андреа Ошварт, Дельфин Шанеак, Чарли Хюбнер, Франсуа Берлеан, Жан-Поль Мано, Джулиан Ричингс, Джейк Майклс, Джош Блэкер, Ной Кэппи, Франсуа Берлан, Мун Дайлли, Франсуа-Эрик Жандрон, Люк Флориан, Лайонел Сесилио, Тристан Робин, Камел Бахаж, Марк Иванир, Дэниэл Фазерс, Эмили Коуттс, Даниел Мандич, Ишан Моррис, Крис Вайолетт, Джейми Спильчук, Уве Оксенкнехт, Рэйчел Скарстен, Джейн МакЛин, Бэрри Флэтмэн, Моника Будайски, Джон Мэйллет, Стефани Жюльен, Томас Люссьони, Терри Кэтлин, Лаура ДеКартере, Колетт Стивенсон

О фильме:
Перевозчик — экшн-телесериал по мотивам одноимённой серии фильмов Люка Бессона. В центре сюжета бывший сотрудник Сил специального назначения Фрэнк Мартин, ныне перевозчик разных грузов. Он не задает лишних вопросов и всегда соблюдает чёткие правила: "Никогда не изменяй условия сделки", "Никаких имён", "Никогда не открывать груз". Его точность вождения и боевые навыки позволяют ему выжить в самых опасных ситуациях на протяжении всей миссии.



Страна: Канада, Франция, США, Германия
Студия: Atlantique Productions, Cinemax, Europa Corp., M6 Metropole Television, QVF Productions, RTL
Продолжительность: 2 x ~ 00:45:00
Перевод: Профессиональный [многоголосый]

Файл
Кодек: XviD
Качество: HDRip
Видео: ~ 1705 Кбит/с, 720x400
Звук: Русский, английский(AC3, 6 ch, 128 / 384 Кбит/с)


Семпл
Общее
Полное имя : D:\Transporter.s01.BDRip.BaibaKo\Transporter.s01e01.BDRip.XviD.BaibaKo.avi
Формат : AVI
Формат/Информация : Audio Video Interleave
Профиль формата : OpenDML
Настройки формата : rec
Размер файла : 726 Мбайт
Продолжительность : 45 м.
Общий поток : 2225 Кбит/сек
Программа кодирования : AVI-Mux GUI 1.17.8, Aug 30 2008 12:36:58

Видео
Идентификатор : 0
Формат : MPEG-4 Visual
Профиль формата : Advanced Simple@L5
Параметр BVOP формата : 2
Параметр QPel формата : Нет
Параметр GMC формата : Без точки перехода
Параметр матрицы формата : Default (H.263)
Режим смешивания : Сжатый битовый поток
Идентификатор кодека : XVID
Идентификатор кодека/Подсказка : XviD
Продолжительность : 45 м.
Битрейт : 1705 Кбит/сек
Ширина : 720 пикселей
Высота : 400 пикселей
Соотношение сторон : 16:9
Частота кадров : 25,000 кадров/сек
Цветовое пространство : YUV
Субдискретизация насыщенности : 4:2:0
Битовая глубина : 8 бит
Тип развёртки : Чересстрочная
Порядок развёртки : Нижнее поле первое
Метод сжатия : С потерями
Бит/(Пиксели*Кадры) : 0.237
Размер потока : 557 Мбайт (77%)
Библиотека кодирования : XviD 58

Аудио #1
Идентификатор : 1
Формат : AC-3
Формат/Информация : Audio Coding 3
Расширение режима : CM (complete main)
Параметр Endianness формата : Big
Идентификатор кодека : 2000
Продолжительность : 45 м.
Вид битрейта : Постоянный
Битрейт : 128 Кбит/сек
Каналы : 6 каналов
Расположение каналов : Front: L C R, Side: L R, LFE
Частота : 48,0 КГц
Битовая глубина : 16 бит
Метод сжатия : С потерями
Размер потока : 41,8 Мбайт (6%)
Выравнивание : Соединение по промежуткам
Продолжительность промежутка : 64 мс. (1,60 видеокадра)
Время предзагрузки промежутка : 192 мс.

Аудио #2
Идентификатор : 2
Формат : AC-3
Формат/Информация : Audio Coding 3
Расширение режима : CM (complete main)
Параметр Endianness формата : Big
Идентификатор кодека : 2000
Продолжительность : 45 м.
Вид битрейта : Постоянный
Битрейт : 384 Кбит/сек
Каналы : 6 каналов
Расположение каналов : Front: L C R, Side: L R, LFE
Частота : 48,0 КГц
Битовая глубина : 16 бит
Метод сжатия : С потерями
Размер потока : 125 Мбайт (17%)
Выравнивание : Соединение по промежуткам
Продолжительность промежутка : 64 мс. (1,60 видеокадра)
Время предзагрузки промежутка : 192 мс.

Общее
Полное имя : D:\Transporter.s01.BDRip.BaibaKo\Transporter.s01e02.HDTVRip.XviD.BaibaKo.avi
Формат : AVI
Формат/Информация : Audio Video Interleave
Профиль формата : OpenDML
Настройки формата : rec
Размер файла : 698 Мбайт
Продолжительность : 44 м.
Общий поток : 2186 Кбит/сек
Программа кодирования : AVI-Mux GUI 1.17.8, Aug 30 2008 12:36:58

Видео
Идентификатор : 0
Формат : xvid
Идентификатор кодека : xvid
Продолжительность : 44 м.
Битрейт : 1668 Кбит/сек
Ширина : 720 пикселей
Высота : 400 пикселей
Соотношение сторон : 16:9
Частота кадров : 25,000 кадров/сек
Бит/(Пиксели*Кадры) : 0.232
Размер потока : 533 Мбайт (76%)

Аудио #1
Идентификатор : 1
Формат : MPEG Audio
Версия формата : Version 1
Профиль формата : Layer 3
Режим : Joint stereo
Расширение режима : MS Stereo
Идентификатор кодека : 55
Идентификатор кодека/Подсказка : MP3
Продолжительность : 44 м.
Вид битрейта : Постоянный
Битрейт : 128 Кбит/сек
Каналы : 2 канала
Частота : 48,0 КГц
Метод сжатия : С потерями
Размер потока : 40,9 Мбайт (6%)
Выравнивание : Соединение по промежуткам
Продолжительность промежутка : 403 мс. (10,09 видеокадров)
Время предзагрузки промежутка : 216 мс.

Аудио #2
Идентификатор : 2
Формат : AC-3
Формат/Информация : Audio Coding 3
Расширение режима : CM (complete main)
Параметр Endianness формата : Big
Идентификатор кодека : 2000
Продолжительность : 44 м.
Вид битрейта : Постоянный
Битрейт : 384 Кбит/сек
Каналы : 6 каналов
Расположение каналов : Front: L C R, Side: L R, LFE
Частота : 48,0 КГц
Битовая глубина : 16 бит
Метод сжатия : С потерями
Размер потока : 123 Мбайт (18%)
Выравнивание : Соединение по промежуткам
Продолжительность промежутка : 64 мс. (1,60 видеокадра)
Время предзагрузки промежутка : 192 мс.
Содержание:
01. Дочь генерала
02. Отцовская любовь






Релиз от:




реклама партнёра


Вернуться к началу
 Профиль Отправить личное сообщение  
 
   Похожие торренты   Автор   Торрент   Размер 
В этой теме нет новых непрочитанных сообщений. Перевозчик / Transporter: The Series / 1-3 серии из 12 [боевик, криминал, 2014] HDTVRip, Mvo [BaibaKo]

salma3

41 | 9

1.96 ГБ

В этой теме нет новых непрочитанных сообщений. Перевозчик / Transporter: The Series [S02] (Брэд Тернер, Энди Микита) [боевик, драма, криминал, 2014] HDTVRip [LostFilm]

Dracon

849 | 428

7.39 ГБ

В этой теме нет новых непрочитанных сообщений. Перевозчик: Наследие / The Transporter Refueled (Камиль Деламарр) [боевик, триллер, криминал, 2015] HDRip, dub [Чистый звук]

Dracon

337 | 14

1.46 ГБ

В этой теме нет новых непрочитанных сообщений. Перевозчик: Наследие / The Transporter Refueled (Камиль Деламарр) [боевик, триллер, криминал, 2015] HDRip, dub [Чистый звук]

Dracon

78 | 3

744.41 МБ

В этой теме нет новых непрочитанных сообщений. Перевозчик: Наследие / The Transporter Refueled [боевик, триллер, криминал, 2015] WEBRip 1080p, Dib [Трейлер]

salma3

247 | 5

91.41 МБ

В этой теме нет новых непрочитанных сообщений. Перевозчик: Наследие / The Transporter Refueled [Боевик, триллер, криминал, 2015] WEBRip 1080p, Mvo [Трейлер]

salma3

270 | 13

107.71 МБ

В этой теме нет новых непрочитанных сообщений. Перевозчик: Наследие / The Transporter Refueled (Камиль Деламарр) [боевик, триллер, криминал, 2015] BDRip, Dub [Лицензия]

Dracon

6985 | 486

1.46 ГБ


Начать новую тему Ответить на тему  [ 1 сообщение ] 




Для Мосгорсуда, Роскомнадзора и рекламодателей:: mosgorsud-torrent[собачка]yandex.ru