Торрент файл
скачать торрент магнет ссылка Добавлен: 29 дек 2012, 21:13
Размер: 7.6 ГБ
Сидеров: 8
Личеров: 2
Статус: (salma3)
Автор

СообщениеДобавлено: 29 дек 2012, 21:13 

В сети
Супермодератор
Аватара пользователя
Дата регистрации:
15 фев 2012, 16:44
Возраст: 27
Спасибо: 5148 / 2090
Сообщения: 17558

Воздействие / Грабь награбленное / Leverage /

Год выхода: 2012
Жанр: Криминал, детектив, драма
Режиссер: Марк Роскин, Дин Девлин, Джонатан Фрейкс
В ролях: Тимоти Хаттон, Джина Беллман, Кристиан Кейн, Бэт Рисграф, Элдис Ходж, Джери Райан, Марк Шеппард, Шон Гудел, Роберт Бланш, Пит Робертсон

Описание: Нейт Форд, бывший следователь страховой компании, возглавляет команду, в которую входят: компьютерный мошенник Хардисон, воровка и вообще безбашенная особа Паркер, актриса и мошенница Софи и специалист широкого профиля Эллиот. Эта команда помогает людям пострадавшим от рук сильных мира сего, а попросту — воров.

Страна: США
Студия: Electric Entertainment
Продолжительность: 15 x ~ 00:45:00
Перевод: Профессиональный (многоголосый, закадровый) LostFilm



Качество: WEB-DLRip
Формат: AVI
Видео кодек: XviD
Аудио кодек: MP3
Видео: 720х400 (16/9), 23.976 fps, ~1350 Kbps
Аудио: 48 kHz, MPEG Layer 3, 2 ch, 128-192 kbps avg

Сезон полностью. Сериал закрыт.

01 - "Дело о большой пташке / The (Very) Big Bird Job"
02 - "Дело о подаче / The Blue Line Job"
03 - "Дело о первом контакте / The First Contact Job"
04 - "Дело о французских связях / The French Connection Job"
05 - "Дело о подборе ключей / The Gimme a K Street Job"
06 - "Дело о Д.Б. Купере / The D.B. Cooper Job"
07 - "Дело о настоящей ненастоящей машине / The Real Fake Car Job"
08 - "Дело о подбитом крыле / The Broken Wing Job"
09 - "Дело о провокации / The Rundown Job"
10 - "Дело о подтасовке / The Frame-Up Job"
11 - "Дело об очень низких ценах / The Low Low Price Job"
12 - "Дело о белом кролике / The White Rabbit Job"
13 - "Дело о штопоре / The Corkscrew Job"
14 - "Игрушечное дело / The Toy Job"
15 - "Дело о долгом прощании / The Long Good-bye Job"
Формат: AVI
Формат/Информация: Audio Video Interleave
Размер файла: 443 Мбайт
Продолжительность: 42 м.
Общий поток: 1468 Кбит/сек
Программа кодирования: Nandub v1.0rc2
Библиотека кодирования: Nandub build 1853/release

Видео
Идентификатор: 0
Формат: MPEG-4 Visual
Профиль формата: Simple@L3
Параметр BVOP формата: Нет
Параметр QPel формата: Нет
Параметр GMC формата: Без точки перехода
Параметр матрицы формата: Default (H.263)
Идентификатор кодека: XVID
Идентификатор кодека/Подсказка: XviD
Продолжительность: 42 м.
Битрейт: 1268 Кбит/сек
Ширина: 720 пикс.
Высота: 400 пикс.
Соотношение сторон: 16:9
Частота кадров: 23,976 кадр/сек
Цветовое пространство: YUV
Подвыборка цветности: 4:2:0
Битовая глубина: 8 бит
Тип развёртки: Прогрессивная
Метод сжатия: С потерями
Бит/(Пиксели*Кадры): 0.184
Размер потока: 383 Мбайт (86%)
Библиотека кодирования: XviD 1.2.1 (UTC 2008-12-04)

Аудио
Идентификатор: 1
Формат: MPEG Audio
Версия формата: Version 1
Профиль формата: Layer 3
Режим: Joint stereo
Расширение режима: MS Stereo
Идентификатор кодека: 55
Идентификатор кодека/Подсказка: MP3
Продолжительность: 42 м.
Вид битрейта: Переменный
Битрейт: 192 Кбит/сек
Каналы: 2 канала
Частота: 48,0 КГц
Метод сжатия: С потерями
Размер потока: 56,6 Мбайт (13%)
Выравнивание: Соединение по промежуткам
Продолжительность промежутка: 24мс. (0,58 видеокадр)
Время предзагрузки промежутка: 489 ms
Библиотека кодирования: LAME3.97b
Настройки программы: -m j -V 4 -q 3 -lowpass 18.6 --abr 192


Релиз от:




реклама партнёра


Вернуться к началу
 Профиль Отправить личное сообщение  
 
   Похожие торренты   Автор   Торрент   Размер 
В этой теме нет новых непрочитанных сообщений. Касл / Castle / 7 сезон 1-23 серии из 23 [драма, комедия, криминал, детектив, 2014] WEB-DLRip, Mvo [LostFilm]

salma3

1133 | 1105

10.14 ГБ

В этой теме нет новых непрочитанных сообщений. Чёрный список / The Blacklist / 2 сезон 1-22 серии из 22 [Драма, криминал, боевик, триллер, детектив, 2014-2015] WEB-DLRip 1080p, Mvo [LostFilm]

salma3

66 | 67

39.75 ГБ

В этой теме нет новых непрочитанных сообщений. Красавица и чудовище / Beauty and the Beast / 2 сезон 1-22 серии из 22 [триллер, драма, криминал, детектив, 2013-2014] WEB-DLRip 720p, Mvo [LostFilm]

salma3

31 | 64

31.23 ГБ

В этой теме нет новых непрочитанных сообщений. Чужой среди своих / Родина / Homeland (Сезон 2-4, Серии 1-28 из 36) [2012-2014, Триллер, драма, криминал, детектив , WEBDLRip-AVC 720р] [MVO] (LostFilm)

Враг Нароода

В этой теме нет новых непрочитанных сообщений. Слепое пятно / Blindspot / 2 сезон 1-9 серии из 22 [Драма, детектив, 2016] WEB-DLRip, Mvo [LostFilm]

salma3

66 | 192

4.84 ГБ

В этой теме нет новых непрочитанных сообщений. Укушенная / Bitten / 3 сезон 1-10 серии из 10 [ужасы, фэнтези, драма, детектив, 2016] WEB-DLRip, Mvo [LostFilm]

salma3

84 | 62

5.84 ГБ

В этой теме нет новых непрочитанных сообщений. Хранилище 13 / Ангар 13 / Warehouse 13 / 5 сезон 1-6 серии из 6 [фантастика, драма, детектив, 2014] WEB-DLRip, Mvo [LostFilm]

salma3

2 | 3

2.91 ГБ


Начать новую тему Ответить на тему  [ 1 сообщение ] 




Для Мосгорсуда, Роскомнадзора и рекламодателей:: mosgorsud-torrent[собачка]yandex.ru