Торрент файл
скачать торрент магнет ссылка Добавлен: 29 дек 2012, 20:51
Размер: 600.97 МБ
Сидеров: 0
Личеров: 1
Автор

СообщениеДобавлено: 29 дек 2012, 20:51 

Не в сети
Зам. Админа
Аватара пользователя
Дата регистрации:
02 дек 2010, 12:39
Спасибо: 12461 / 214
Сообщения: 27968

Год выпуска: 2012
Страна: Великобритания
Жанр:Драма, комедия
Продолжительность: 02 х ~ 00:25:00
Перевод: Многоголосое (двухголосый закадровое) - NewStudio
Субтитры: нет
Режиссер: Алекс Хардкэсл

В ролях: Дэниэл Рэдклифф, Адам Годли, Джон Хэмм, Рози Кавальеро, Вики Пеппердин

Описание: Экранизация цикла рассказов Михаила Булгакова "Записки юного врача".
В неспокойное революционное время юный врач Бомгард Владимир прибыл в маленькую деревушку, где принялся лечить местных жителей. Главному герою сериала приходится весьма нелегко, ведь он вынужден сталкиваться с трудностями своей профессии, а также постоянными суевериями своих пациентов.


Перевод: Илья Белкин
Постер: Vortex
Работа со звуком: baggio
Рип видео: baggio

Качество: HDTVRip
Формат: AVI
Видео кодек: XviD
Аудио кодек: МР3
Видео: XviD, ~ 1525 Кбит/с, 720x400
Аудио rus:МР3, 2 ch, 128 Кбит/
Аудио eng:МР3, 2 ch, 128 Кбит/

Формат: AVI
Формат/Информация: Audio Video Interleave
Размер файла: 300 Мбайт
Продолжительность: 23 м.
Общий поток: 1795 Кбит/сек
Программа кодирования: VirtualDubMod 1.5.10.2 (build 2540/release)
Библиотека кодирования: VirtualDubMod build 2540/release

Видео
Идентификатор: 0
Формат: MPEG-4 Visual
Профиль формата: Advanced Simple@L5
Параметр BVOP формата: 2
Параметр QPel формата: Нет
Параметр GMC формата: Без точки перехода
Параметр матрицы формата: Default (MPEG)
Идентификатор кодека: XVID
Идентификатор кодека/Подсказка: XviD
Продолжительность: 23 м.
Битрейт: 1525 Кбит/сек
Ширина: 720 пикс.
Высота: 400 пикс.
Соотношение сторон: 16:9
Частота кадров: 23,976 кадр/сек
Цветовое пространство: YUV
Подвыборка цветности: 4:2:0
Битовая глубина: 8 бит
Тип развёртки: Прогрессивная
Метод сжатия: С потерями
Бит/(Пиксели*Кадры): 0.221
Размер потока: 255 Мбайт (85%)
Библиотека кодирования: XviD 64

Аудио #1
Идентификатор: 1
Формат: MPEG Audio
Версия формата: Version 1
Профиль формата: Layer 3
Режим: Joint stereo
Расширение режима: MS Stereo
Идентификатор кодека: 55
Идентификатор кодека/Подсказка: MP3
Продолжительность: 23 м.
Вид битрейта: Постоянный
Битрейт: 128 Кбит/сек
Каналы: 2 канала
Частота: 48,0 КГц
Метод сжатия: С потерями
Размер потока: 21,4 Мбайт (7%)
Выравнивание: Соединение по промежуткам
Продолжительность промежутка: 42мс. (1,00 видеокадр)
Время предзагрузки промежутка: 504 ms

Аудио #2
Идентификатор: 2
Формат: MPEG Audio
Версия формата: Version 1
Профиль формата: Layer 3
Режим: Joint stereo
Расширение режима: MS Stereo
Идентификатор кодека: 55
Идентификатор кодека/Подсказка: MP3
Продолжительность: 23 м.
Вид битрейта: Постоянный
Битрейт: 128 Кбит/сек
Каналы: 2 канала
Частота: 48,0 КГц
Метод сжатия: С потерями
Размер потока: 21,4 Мбайт (7%)
Выравнивание: Соединение по промежуткам
Продолжительность промежутка: 42мс. (1,00 видеокадр)
Время предзагрузки промежутка: 504 ms


Релиз от:




реклама партнёра


Вернуться к началу
 Профиль  
 
   Похожие торренты   Автор   Торрент   Размер 
В этой теме нет новых непрочитанных сообщений. Young Girls Love Sex / Молодые Девушки Любят Секс (Digital Sin) (Christy Mack, Cameron Canada, Alexis Monroe, and Britney Young, with Mr. Pete...) [2012 г., Gonzo, 18+ Teens, DVDRip 352p]

friizze

0 | 6

1.37 ГБ

В этой теме нет новых непрочитанных сообщений. 50 Shades Of Dylan Ryan / 50 оттенков Dylan Ryan (Madison Young / Filly Films) (Madison Young, Dylan Ryan, Beretta James, Bianca Stone, Penny Play...) [2012 г., Bondage, Fantasy, Feature, Made For Women, Parody, WEB-DL 1080p]

friizze

9 | 7

2.35 ГБ

В этой теме нет новых непрочитанных сообщений. Юнг-Гу во времени / Young Gun in the time (О Ён Ду / Oh Young-Doo) [2012г., детектив, DVDRip] Sub

Alfredovich

2 | 2

1.46 ГБ

В этой теме нет новых непрочитанных сообщений. Доктор Кто / Doctor Who [S09] (Бен Уитли) [2015, Фантастика, приключения, HDTVRip | IdeaFilm]

Dracon

44 | 43

5.97 ГБ

В этой теме нет новых непрочитанных сообщений. Молодой Папа / The Young Pope [S01] ( драма, 2016) HDTVRip | NewStudio

marya111

251 | 199

6.89 ГБ

В этой теме нет новых непрочитанных сообщений. Доктор-чужестранец / Dakteo Yibangin / Doctor Stranger [01-20 из 20] (Джин Хёк) [Медицина, драма, 2014] HDTVRip, dvo

Dracon

24 | 11

11.19 ГБ

В этой теме нет новых непрочитанных сообщений. Доктор / Doctor / Dakteo [триллер, 2012] HDRip, dvo

Dracon

4 | 4

1.46 ГБ


Начать новую тему Ответить на тему  [ 1 сообщение ] 




Для Мосгорсуда, Роскомнадзора и рекламодателей:: mosgorsud-torrent[собачка]yandex.ru